<?xml version="1.0" standalone="no"?>
<!DOCTYPE svg PUBLIC "-//W3C//DTD SVG 1.1//EN" "http://www.w3.org/Graphics/SVG/1.1/DTD/svg11.dtd" >
<svg xmlns="http://www.w3.org/2000/svg" xmlns:xlink="http://www.w3.org/1999/xlink" version="1.1">
<metadata>
Created by FontForge 20170924 at Thu Feb  9 15:54:05 2023
 By www-data
</metadata>
<defs>
<font id="Blacklist-Thin" horiz-adv-x="876" >
  <font-face 
    font-family="Dea Font Thin"
    font-weight="100"
    font-stretch="normal"
    units-per-em="2048"
    panose-1="0 0 0 0 0 0 0 0 0 0"
    ascent="1536"
    descent="-512"
    x-height="897"
    cap-height="1346"
    bbox="-70.002 -696.005 2230 1780"
    underline-thickness="102"
    underline-position="-358"
    unicode-range="U+000D-FB06"
  />
<missing-glyph horiz-adv-x="1024" 
 />
    <glyph glyph-name="f_f" unicode="ff" horiz-adv-x="1030" 
d="M131 883l-129.001 -0.00488281v4l129 47v72c0 58.667 5.33301 112.167 16 160.5s27.334 92.166 50.001 131.499s53.667 70 93 92s85.333 33 138 33c69.333 0 124.666 -9.33301 165.999 -28l-47 -178h-4l-54 184c-95.333 2 -163.5 -28 -204.5 -90
s-61.5 -156.333 -61.5 -283v-125h395v103c0 58.667 5.5 112.334 16.5 161.001s28 92.5 51 131.5s54.333 69.5 94 91.5s85.834 33 138.501 33c66.667 0 121.667 -9.33301 165 -28l-47 -178h-6l-51 184c-95.333 2 -163.833 -28 -205.5 -90s-62.5 -156.333 -62.5 -283v-125h282
v-20h-282v-758c0 -27.333 3.66699 -48.166 11 -62.499s20 -29.833 38 -46.5v-4h-191v4c17.333 16.667 29.833 32.334 37.5 47.001s11.5 35.334 11.5 62.001v758h-395v-758c0 -27.333 3.5 -48.333 10.5 -63s19.167 -30 36.5 -46v-4h-188v4
c17.333 16.667 29.833 32.334 37.5 47.001s11.5 35.334 11.5 62.001v758z" />
    <glyph glyph-name="fi" unicode="fi" horiz-adv-x="815" 
d="M131 883l-128.999 -0.00195312v4l129 47v72c0 62 6.16699 117.5 18.5 166.5s31.666 92.667 57.999 131s62.333 67.833 108 88.5s99.5 31 161.5 31c70 0 128 -11.333 174 -34l-76 -236h-6l-51 246c-95.333 2 -168.333 -26.333 -219 -85s-76 -147.667 -76 -267v-144h279
v-20h-279v-758c0 -27.333 3.5 -48.333 10.5 -63s19.167 -30 36.5 -46v-4h-188v4c17.333 16.667 29.833 32.334 37.5 47.001s11.5 35.334 11.5 62.001v758zM543.001 833.998c23.333 4 50.667 14.1641 82 30.4971s54.333 31.833 69 46.5h4l-2 -786
c0 -27.333 3.66699 -48.333 11 -63s20 -30 38 -46v-4h-190v4c17.333 16.667 29.833 32.334 37.5 47.001s11.5 35.334 11.5 62.001v582c0 60.667 -20.333 101.334 -61 122.001v5z" />
    <glyph glyph-name="fl" unicode="fl" horiz-adv-x="864" 
d="M131 883l-129.001 -0.00683594v4l129 47v72c0 138.667 30.833 242.834 92.5 312.501s159.834 104.5 294.501 104.5c38 0 69.333 -2.83301 94 -8.5s51.334 -16.5 80.001 -32.5c21.333 14.667 37.666 28.334 48.999 41.001h4l-2 -1298
c0 -27.333 3.83301 -48.166 11.5 -62.499s20.5 -29.833 38.5 -46.5v-4h-189v4c17.333 16.667 29.833 32.334 37.5 47.001s11.5 35.334 11.5 62.001v1096l-96 174c-100.667 11.333 -181.5 -14 -242.5 -76s-91.5 -152.667 -91.5 -272v-144h295v-20h-295v-758
c0 -27.333 3.5 -48.333 10.5 -63s19.167 -30 36.5 -46v-4h-188v4c17.333 16.667 29.833 32.334 37.5 47.001s11.5 35.334 11.5 62.001v758z" />
    <glyph glyph-name="f_f_i" unicode="ffi" horiz-adv-x="1306" 
d="M2 883v3.99902l129 47v72c0 58.667 5.33301 112.167 16 160.5s27.334 92.166 50.001 131.499s53.667 70 93 92s85.333 33 138 33c39.333 0 70.333 -1.83301 93 -5.5s47 -11.167 73 -22.5l-47 -178h-4l-54 184c-95.333 2 -163.5 -28 -204.5 -90s-61.5 -156.333 -61.5 -283
v-125h395v103c0 42 2.83301 82 8.5 120s15.5 75.5 29.5 112.5s31.833 68.833 53.5 95.5s50.167 48.167 85.5 64.5s75.333 24.5 120 24.5c69.333 0 124.666 -9.33301 165.999 -28l-47 -178h-4l-53 184c-95.333 2 -163.5 -28 -204.5 -90s-61.5 -156.333 -61.5 -283v-125h282
v-20h-282v-758c0 -27.333 3.5 -48.333 10.5 -63s19.167 -30 36.5 -46v-4h-189v4c17.333 16.667 29.833 32.334 37.5 47.001s11.5 35.334 11.5 62.001v758h-395v-758c0 -27.333 3.5 -48.333 10.5 -63s19.167 -30 36.5 -46v-4h-188v4c17.333 16 29.5 31.5 36.5 46.5
s10.5 35.833 10.5 62.5l2 758h-129zM1034 828.999v4.99805c23.333 4 51 14.333 83 31s55 32 69 46h4l-2 -786c0 -27.333 3.5 -48.333 10.5 -63s19.167 -30 36.5 -46v-4h-188v4c17.333 16.667 29.833 32.334 37.5 47.001s11.5 35.334 11.5 62.001v582
c0 60 -20.667 100.667 -62 122z" />
    <glyph glyph-name="f_f_l" unicode="ffl" horiz-adv-x="1337" 
d="M129 883l-128.999 -0.00390625v4l129 47v72c0 58.667 5.33301 112.167 16 160.5s27.334 92.166 50.001 131.499s53.667 70 93 92s85.333 33 138 33c69.333 0 124.666 -9.33301 165.999 -28l-47 -178h-4l-54 184c-95.333 2 -163.5 -28 -204.5 -90
s-61.5 -156.333 -61.5 -283v-125h383v103c0 137.333 31 241.166 93 311.499s160 105.5 294 105.5c38.667 0 70 -2.83301 94 -8.5s50.667 -16.5 80 -32.5c19.333 11.333 35.666 25 48.999 41h5v-1298c0 -27.333 3.5 -48.333 10.5 -63s19.167 -30 36.5 -46v-4h-187v4
c17.333 16 29.5 31.5 36.5 46.5s10.5 35.833 10.5 62.5v1096l-96 174c-100 12 -180.667 -13.167 -242 -75.5s-92 -153.166 -92 -272.499v-144h295v-20h-295v-758c0 -27.333 3.66699 -48.166 11 -62.499s20 -29.833 38 -46.5v-4h-190v4
c17.333 16.667 29.833 32.334 37.5 47.001s11.5 35.334 11.5 62.001v758h-383v-758c0 -27.333 3.5 -48.333 10.5 -63s19.167 -30 36.5 -46v-4h-188v4c17.333 16.667 29.833 32.334 37.5 47.001s11.5 35.334 11.5 62.001v758z" />
    <glyph glyph-name="f_b" unicode="fb" horiz-adv-x="1464" 
d="M129 885l-129.002 0.000976562v2l129 47v72c0 138.667 30.833 243.167 92.5 313.5s159.834 105.5 294.501 105.5c38 0 69.333 -2.83301 94 -8.5s51.334 -16.5 80.001 -32.5c20 13.333 36.333 26.333 49 39h4v-637c20.667 17.333 38 31.333 52 42s33.833 23.5 59.5 38.5
s53.667 26.167 84 33.5s62.833 11 97.5 11c110 0 195.5 -40.5 256.5 -121.5s91.5 -189.833 91.5 -326.5c0 -62 -7.83301 -119.833 -23.5 -173.5s-39.667 -102.5 -72 -146.5s-76.333 -78.833 -132 -104.5s-120.167 -38.5 -193.5 -38.5c-107.333 0 -187.333 30.667 -240 92
l-68 -92h-4v1219l-96 178c-100.667 11.333 -181.5 -14 -242.5 -76s-91.5 -153.333 -91.5 -274v-142h295v-20h-295v-760c0 -26.667 3.5 -47.167 10.5 -61.5s19.167 -29.5 36.5 -45.5v-4h-188v4c18 16.667 30.667 32.167 38 46.5s11 35.166 11 62.499v758zM978.998 868.001
c-78.667 0 -157.333 -36.668 -236 -110.001v-594c15.333 -51.333 43.5 -88.166 84.5 -110.499s86.833 -33.5 137.5 -33.5c99.333 0 176 37.5 230 112.5s81 175.5 81 301.5c0 40.667 -2.83301 80.167 -8.5 118.5s-15.667 77 -30 116s-32.333 73 -54 102s-50 52.5 -85 70.5
s-74.833 27 -119.5 27z" />
    <glyph glyph-name="f_k" unicode="fk" horiz-adv-x="1380" 
d="M129 883l-129 -0.00683594v4l129 47v72c0 138.667 30.833 242.834 92.5 312.501s159.834 104.5 294.501 104.5c38 0 69.333 -2.83301 94 -8.5s51.334 -16.5 80.001 -32.5c21.333 14.667 37.666 28.334 48.999 41.001h4v-1046l324 338c54.667 58 78 117.333 70 178v4h163
v-4c-28.667 -26.667 -59.834 -55 -93.501 -85s-60.5 -54 -80.5 -72s-35.667 -32.667 -47 -44l-108 -112l366 -564v-4h-166l3 4c8 34 1.66699 67.667 -19 101l-252 391l-160 -166l-2 -217c0 -27.333 3.83301 -48.166 11.5 -62.499s20.5 -29.833 38.5 -46.5v-4h-189v4
c17.333 16.667 29.833 32.334 37.5 47.001s11.5 35.334 11.5 62.001v1094l-96 176c-100.667 11.333 -181.5 -14 -242.5 -76s-91.5 -152.667 -91.5 -272v-144h295v-20h-295v-758c0 -27.333 3.5 -48.333 10.5 -63s19.167 -30 36.5 -46v-4h-188v4
c17.333 16.667 29.833 32.334 37.5 47.001s11.5 35.334 11.5 62.001v758z" />
    <glyph glyph-name="f_h" unicode="fh" horiz-adv-x="1462" 
d="M0 885l-0.00292969 1.99902l129 47v72c0 138.667 30.833 243.167 92.5 313.5s159.834 105.5 294.501 105.5c38 0 69.333 -2.83301 94 -8.5s51.334 -16.5 80.001 -32.5c20 13.333 36.333 26.333 49 39h4l-2 -624c51.333 27.333 110.333 52.833 177 76.5
s127.334 35.5 182.001 35.5c170.667 0 256 -88 256 -264v-522c0 -27.333 3.66699 -48.166 11 -62.499s20 -29.833 38 -46.5v-4h-188v4c17.333 16 29.5 31.333 36.5 46s10.5 35.667 10.5 63v512c0 76.667 -19.667 132.334 -59 167.001s-98.333 52 -177 52
c-45.333 0 -94 -7.83301 -146 -23.5s-99 -34.5 -141 -56.5v-651c0 -27.333 3.5 -48.333 10.5 -63s19.167 -30 36.5 -46v-4h-188v4c18 16 30.667 31.5 38 46.5s11 35.833 11 62.5l2 1094l-96 178c-100.667 11.333 -181.5 -14 -242.5 -76s-91.5 -153.333 -91.5 -274v-142h295
v-20h-295v-760c0 -26.667 3.5 -47.167 10.5 -61.5s19.167 -29.5 36.5 -45.5v-4h-188v4c18 16.667 30.667 32.167 38 46.5s11 35.166 11 62.499v758h-129z" />
    <glyph glyph-name=".notdef" horiz-adv-x="1024" 
 />
    <glyph glyph-name="uni0000" horiz-adv-x="0" 
 />
    <glyph glyph-name="uni0000" horiz-adv-x="0" 
 />
    <glyph glyph-name="uni000D" unicode="&#xd;" horiz-adv-x="512" 
 />
    <glyph glyph-name="space" unicode=" " horiz-adv-x="524" 
 />
    <glyph glyph-name="exclam" unicode="!" horiz-adv-x="460" 
d="M174 1346h113l-51 -977h-11zM227 0c-20.667 0 -38.334 7.33301 -53.001 22s-22 32.667 -22 54c0 20.667 7.33301 38.5 22 53.5s32.334 22.5 53.001 22.5c21.333 0 39.333 -7.5 54 -22.5s22 -32.833 22 -53.5c0 -21.333 -7.33301 -39.333 -22 -54s-32.667 -22 -54 -22z
" />
    <glyph glyph-name="quotedbl" unicode="&#x22;" horiz-adv-x="526" 
d="M197 1401c18 0 32.3311 -6.16797 42.998 -18.501s16 -27.5 16 -45.5c0 -10 -1 -19.333 -3 -28s-6.16699 -18.167 -12.5 -28.5s-11 -17.666 -14 -21.999s-9.5 -12.833 -19.5 -25.5s-15.667 -19.667 -17 -21h-30c22.667 22.667 42.334 48 59.001 76c-8 -4 -16 -6 -24 -6
c-16 0 -29.667 5.66699 -41 17s-17 26 -17 44c0 16.667 5.83301 30.5 17.5 41.5s25.834 16.5 42.501 16.5zM288.998 1343c0 16.667 5.50098 30.499 16.501 41.499s24.5 16.5 40.5 16.5c18 0 32.833 -6.16699 44.5 -18.5s17.5 -27.5 17.5 -45.5c0 -10 -1 -19.333 -3 -28
s-6.16699 -18.167 -12.5 -28.5s-11 -17.666 -14 -21.999s-9.5 -12.833 -19.5 -25.5s-15.667 -19.667 -17 -21h-33c19.333 18 40 43.333 62 76c-8 -4 -16.333 -6 -25 -6c-16.667 0 -30.334 5.66699 -41.001 17s-16 26 -16 44z" />
    <glyph glyph-name="numbersign" unicode="#" horiz-adv-x="1406" 
d="M1276 836h-260l-144 -369h404v-31h-416l-170 -436h-35l170 436h-436l-170 -436h-35l170 436h-248v31h261l143 369h-404v30h416l189 484h32l-188 -484h438l189 484h32l-186 -484h248v-30zM981 836h-436l-144 -369h437z" />
    <glyph glyph-name="dollar" unicode="$" horiz-adv-x="1077" 
d="M104 408l7.00488 -0.000976562c15.333 -60.667 33 -112.834 53 -156.501s44.667 -82.667 74 -117s65.166 -60.5 107.499 -78.5s91.166 -28.333 146.499 -31v626c-14.667 5.33301 -40.667 16.333 -78 33c-36.667 15.333 -68.334 29.5 -95.001 42.5s-54.5 29.333 -83.5 49
s-52.333 40.167 -70 61.5s-32.334 46.833 -44.001 76.5s-17.5 61.834 -17.5 96.501c0 65.333 18.833 124.333 56.5 177s85.667 93.334 144 122.001s120.833 45 187.5 49v133h32v-131c82.667 0 151.667 -6.83301 207 -20.5s119.666 -41.167 192.999 -82.5l-45 -213h-2
c-20.667 91.333 -62.667 161.833 -126 211.5s-139 76.167 -227 79.5v-585c10 -4 25.5 -10.167 46.5 -18.5s36.833 -14.5 47.5 -18.5c71.333 -29.333 128.833 -57.166 172.5 -83.499s79.834 -59.5 108.501 -99.5c37.333 -52.667 56.166 -111.334 56.499 -176.001
s-18.5 -122.667 -56.5 -174c-87.333 -118 -212.333 -178 -375 -180v-137h-32v137c-138.667 4 -268 35.333 -388 94v314zM854.005 304.999c0 27.333 -3.66504 53 -10.998 77s-16.333 45.167 -27 63.5s-25.334 36.166 -44.001 53.499s-36.334 32 -53.001 44
s-37.5 24.5 -62.5 37.5s-46.667 23.333 -65 31s-40.833 16.834 -67.5 27.501v-614c92 1.33301 170 26.333 234 75s96 117 96 205zM201.007 1090c-2 -44 4.16602 -83.5 18.499 -118.5s36.5 -65.333 66.5 -91s60.5 -47 91.5 -64s69.167 -34.5 114.5 -52.5v571
c-71.333 -3.33301 -136.666 -27 -195.999 -71s-91 -102 -95 -174z" />
    <glyph glyph-name="percent" unicode="%" horiz-adv-x="1538" 
d="M1149 0c-78.667 0 -146.167 26.667 -202.5 80s-84.5 126.333 -84.5 219c0 92 28.167 164.5 84.5 217.5s123.833 79.5 202.5 79.5c79.333 0 147.333 -26.5 204 -79.5s85 -125.5 85 -217.5s-28.333 -164.833 -85 -218.5s-124.667 -80.5 -204 -80.5zM115 1063
c0 92 28.167 164.5 84.5 217.5s123.5 79.5 201.5 79.5c80.667 0 149.334 -26.5 206.001 -79.5s85 -125.5 85 -217.5c0 -93.333 -28.333 -166.5 -85 -219.5s-125.334 -79.5 -206.001 -79.5c-78.667 0 -146 26.667 -202 80s-84 126.333 -84 219zM1149 571
c-58 0 -104.667 -25.6689 -140 -77.002s-52.333 -116.333 -51 -195c0 -79.333 17.5 -144.666 52.5 -195.999s81.167 -76.666 138.5 -75.999c58 0 104.5 25.667 139.5 77s52.5 116.333 52.5 195s-17.5 143.667 -52.5 195s-81.5 77 -139.5 77zM401 1335
c-57.333 0 -103.331 -25.502 -137.998 -76.502s-52 -116.167 -52 -195.5s17.333 -144.666 52 -195.999s80.667 -76.666 138 -75.999c59.333 0 106.666 25.667 141.999 77s53 116.333 53 195s-17.833 143.667 -53.5 195s-82.834 77 -141.501 77zM195.002 11.9961l1169 1334
h43l-1171 -1334h-41z" />
    <glyph glyph-name="ampersand" unicode="&#x26;" horiz-adv-x="1269" 
d="M135 127c-46.667 58 -67.667 124.172 -63 198.505s31.334 140.5 80.001 198.5c69.333 78.667 160.666 139 273.999 181c-28 35.333 -49.5 63.5 -64.5 84.5s-32 47.833 -51 80.5s-32.833 65.167 -41.5 97.5s-13 66.166 -13 101.499c0 40.667 6.83301 77.667 20.5 111
s31.834 61.166 54.501 83.499s49.5 41 80.5 56s63.167 25.833 96.5 32.5s68 10 104 10c119.333 0 206.666 -35.667 261.999 -107c33.333 -40.667 48.5 -88.334 45.5 -143.001s-24.833 -106.667 -65.5 -156c-56 -66.667 -162.333 -142.334 -319 -227.001
c3.33301 -4.66699 36 -45 98 -121c122.667 -150 223 -264 301 -342c23.333 28 47.5 65.667 72.5 113s47.5 100.166 67.5 158.499s29.667 118.166 29 179.499s-15.334 113 -44.001 155v5l125 -25c0 -104.667 -24.833 -213.167 -74.5 -325.5
s-104.167 -203.166 -163.5 -272.499c140.667 -138 251.334 -203.667 332.001 -197v-4l-109 -53c-70.667 -0 -167.334 61.333 -290.001 184c-55.333 -54.667 -122.666 -99 -201.999 -133s-155.333 -51 -228 -51c-139.333 -0 -244 42.333 -314 127zM440 686.005
c-87.333 -52.667 -152.501 -112 -195.501 -178s-64.5 -131.667 -64.5 -197c0 -74.667 26.333 -138.167 79 -190.5s119.334 -79.5 200.001 -81.5c152 -2.66699 287.667 50 407 158c-35.333 34 -75.666 77 -120.999 129c-70.667 80 -172.334 200 -305.001 360zM339.999 1118
c0 -58 14.5 -115.165 43.5 -171.498s73.833 -121.833 134.5 -196.5c212.667 118.667 313 245.334 301 380.001c-4.66699 55.333 -26 103.166 -64 143.499s-90.333 61.5 -157 63.5c-28.667 1.33301 -57 -1.33398 -85 -8.00098s-55.5 -17.834 -82.5 -33.501
s-48.833 -38.667 -65.5 -69s-25 -66.5 -25 -108.5z" />
    <glyph glyph-name="quotesingle" unicode="'" horiz-adv-x="421" 
d="M193 1077l-27 269h125l-88 -269h-10z" />
    <glyph glyph-name="parenleft" unicode="(" horiz-adv-x="718" 
d="M655 1491l0.00195312 -10.001c-68 -3.33301 -137 -27.833 -207 -73.5s-123.667 -109.167 -161 -190.5c-56.667 -123.333 -90.834 -267.833 -102.501 -433.5s-0.166992 -324.5 34.5 -476.5c16.667 -73.333 45.834 -141.166 87.501 -203.499s94.5 -113 158.5 -152
s131.667 -56.833 203 -53.5v-11c-46.667 -6.66699 -99.334 -4.33398 -158.001 6.99902c-124 26 -226.333 107.5 -307 244.5s-121 304.5 -121 502.5c0 104 10.5 201.667 31.5 293s49.667 170.333 86 237s78.666 124.167 126.999 172.5s100.5 84.833 156.5 109.5
s113.333 37.334 172 38.001z" />
    <glyph glyph-name="parenright" unicode=")" horiz-adv-x="747" 
d="M63 1475l0.000976562 11.9961c52.667 4.66699 105.334 2 158.001 -8c125.333 -26 228 -107.167 308 -243.5s120 -304.5 120 -504.5c0 -129.333 -16 -248.166 -48 -356.499s-74.833 -197.666 -128.5 -267.999s-114.5 -125.166 -182.5 -164.499
s-138.667 -59.666 -212 -60.999v13c68 2 137.167 25.833 207.5 71.5s124.833 109.167 163.5 190.5c56 124 89.667 268.667 101 434s-0.666992 323.666 -36 474.999c-24.667 112.667 -79.334 209.834 -164.001 291.501s-180.334 121.167 -287.001 118.5z" />
    <glyph glyph-name="asterisk" unicode="*" horiz-adv-x="645" 
d="M98 1171l60 101l157 -158l-45 232h107l-43 -232l147 160l66 -103l-205 -67l199 -57l-60 -99l-145 142l41 -203h-107l43 200l-157 -139l-54 99l205 57z" />
    <glyph glyph-name="plus" unicode="+" horiz-adv-x="665" 
d="M102 684h215v213h31v-213h215v-31h-215v-213h-31v213h-215v31z" />
    <glyph glyph-name="comma" unicode="," horiz-adv-x="452" 
d="M233 0c-20.667 0 -37.8311 6.83203 -51.498 20.499s-20.167 32.167 -19.5 55.5c1.33301 18.667 9.16602 34.834 23.499 48.501s31.166 20.5 50.499 20.5c22.667 0 40.834 -7.33301 54.501 -22s20.5 -33 20.5 -55c0 -50 -30.667 -104 -92 -162l-16 12
c29.333 34 49.666 63.333 60.999 88c-10 -4 -20.333 -6 -31 -6z" />
    <glyph glyph-name="hyphen" unicode="-" horiz-adv-x="768" 
d="M125 643v31h520v-31h-520z" />
    <glyph glyph-name="period" unicode="." horiz-adv-x="454" 
d="M152 76c0 20.667 7.33301 38.5 22 53.5s32.334 22.5 53.001 22.5c21.333 0 39.333 -7.5 54 -22.5s22 -32.833 22 -53.5c0 -21.333 -7.33301 -39.333 -22 -54s-32.667 -22 -54 -22c-20.667 -0 -38.334 7.33301 -53.001 22s-22 32.667 -22 54z" />
    <glyph glyph-name="slash" unicode="/" horiz-adv-x="765" 
d="M43 -176l645 1640h29l-641 -1640h-33z" />
    <glyph glyph-name="zero" unicode="0" horiz-adv-x="1095" 
d="M522 0c-60 0 -114.171 14.3301 -162.504 42.9971s-87.666 65.167 -117.999 109.5s-55.666 95.5 -75.999 153.5s-34.5 114.333 -42.5 169s-12 108.667 -12 162c0 60.667 4.83301 122.334 14.5 185.001s26.334 126.667 50.001 192s52.834 123.333 87.501 174
s79.5 92 134.5 124s116.5 48 184.5 48c60 0 114 -14.667 162 -44s86.667 -66.666 116 -111.999s54 -97.5 74 -156.5s33.833 -116.167 41.5 -171.5s11.5 -109.666 11.5 -162.999c0 -50 -3.33301 -100.667 -10 -152s-17 -104.333 -31 -159s-33.333 -105.5 -58 -152.5
s-53.5 -89.5 -86.5 -127.5s-73.5 -67.833 -121.5 -89.5s-100.667 -32.5 -158 -32.5zM218.996 658.997c0 -25.333 0.830078 -52.501 2.49707 -81.501s5.33398 -64.667 11.001 -107s13 -82.833 22 -121.5s22 -78 39 -118s36.667 -74.5 59 -103.5s50.5 -52.667 84.5 -71
s71.333 -27.5 112 -27.5s78 9.16699 112 27.5s62 41.833 84 70.5s41.5 63.167 58.5 103.5s30 79.666 39 117.999s16.167 78.833 21.5 121.5s8.83301 78.334 10.5 107.001s2.5 56 2.5 82c0 30.667 -0.333008 59.334 -1 86.001s-3.33398 64.167 -8.00098 112.5
s-11.167 91.833 -19.5 130.5s-20.666 80.167 -36.999 124.5s-35.666 81.5 -57.999 111.5s-51 55 -86 75s-74.5 30 -118.5 30s-83.5 -10 -118.5 -30s-63.833 -45 -86.5 -75s-42.167 -67.167 -58.5 -111.5s-28.666 -86 -36.999 -125s-14.833 -82.333 -19.5 -130
s-7.5 -85.167 -8.5 -112.5s-1.5 -56 -1.5 -86z" />
    <glyph glyph-name="one" unicode="1" horiz-adv-x="450" 
d="M88 1194l-0.00195312 2.00098l213 150h4v-1166c0 -12 0.333008 -23.167 1 -33.5s1.33398 -19.333 2.00098 -27s2 -15.334 4 -23.001s3.33301 -13.667 4 -18s2.66699 -9.33301 6 -15s5.5 -9.66699 6.5 -12s3.5 -5.83301 7.5 -10.5s6.66699 -7.5 8 -8.5
s4.5 -3.83301 9.5 -8.5s7.83301 -7.33398 8.5 -8.00098v-4h-210v4c0.666992 0.666992 3.5 3.33398 8.5 8.00098s8.16699 7.5 9.5 8.5s4 3.83301 8 8.5s6.5 8.16699 7.5 10.5s3.16699 6.33301 6.5 12s5.33301 10.667 6 15s2 10.333 4 18s3.33301 15.334 4 23.001
s1.33398 16.667 2.00098 27s1 21.5 1 33.5v926c0 26.667 -8.5 48.167 -25.5 64.5s-48.833 24.166 -95.5 23.499z" />
    <glyph glyph-name="two" unicode="2" horiz-adv-x="1009" 
d="M111 12v66.0049c25.333 26 67.5 67.167 126.5 123.5s110.833 106.166 155.5 149.499s95.167 97 151.5 161s103 123.167 140 177.5s68.333 113.666 94 177.999s38.5 124.833 38.5 181.5c0 87.333 -27.833 156.833 -83.5 208.5s-124.167 77.5 -205.5 77.5
c-38 0 -74.833 -5.33301 -110.5 -16s-70.667 -27.167 -105 -49.5s-64.333 -53.833 -90 -94.5s-44.5 -88.334 -56.5 -143.001h-2l-45 185c62.667 52.667 124.834 89.667 186.501 111s134.5 32 218.5 32c129.333 0 228.666 -28.333 297.999 -85s104 -137 104 -241
c0 -151.333 -112 -339 -336 -563c-59.333 -58.667 -142.333 -133.834 -249 -225.501s-163 -140.167 -169 -145.5h490c20 0 41 2.33301 63 7s52 17.667 90 39s73 49.666 105 84.999h6l-45 -219h-770z" />
    <glyph glyph-name="three" unicode="3" horiz-adv-x="1056" 
d="M100 135l27 221.008h6c6.66699 -47.333 19.334 -90.333 38.001 -129s40.834 -70.5 66.501 -95.5s54.5 -45.833 86.5 -62.5s64 -28.334 96 -35.001s64 -9.66699 96 -9c45.333 1.33301 88 9.16602 128 23.499s76.5 35 109.5 62s59 63 78 108s28.5 96.5 28.5 154.5
c0 88 -37.833 163.167 -113.5 225.5s-173.5 93.5 -293.5 93.5h-115v25h115c50.667 0 102.167 13.167 154.5 39.5s97 65.166 134 116.499s54.833 107.666 53.5 168.999c-2 91.333 -28.333 163 -79 215s-118.667 78 -204 78c-180 0 -291.333 -99.667 -334 -299h-6l-41 189
c100.667 92.667 238.667 137.667 414 135c65.333 -1.33301 123.666 -13.333 174.999 -36s93 -57.5 125 -104.5s48 -103.167 48 -168.5c0 -86.667 -29 -158.834 -87 -216.501s-132 -98.834 -222 -123.501c67.333 -0.666992 129.666 -13.834 186.999 -39.501
s104.666 -64.834 141.999 -117.501s56 -113.667 56 -183c0 -50 -8.5 -95.667 -25.5 -137s-40.167 -76.166 -69.5 -104.499s-63.666 -52.5 -102.999 -72.5s-81.333 -34.5 -126 -43.5s-91 -13.5 -139 -13.5c-78.667 0 -154 11.667 -226 35s-132 56.666 -180 99.999z" />
    <glyph glyph-name="four" unicode="4" horiz-adv-x="1015" 
d="M676 395l-608.001 6.00195v23l639 922h65v-850l143 6v-109h-143v-213c0 -12 0.333008 -23.167 1 -33.5s1.33398 -19.333 2.00098 -27s2 -15.334 4 -23.001s3.33301 -13.667 4 -18s2.66699 -9.33301 6 -15s5.5 -9.66699 6.5 -12s3.5 -5.83301 7.5 -10.5
s6.66699 -7.5 8 -8.5s4.5 -3.83301 9.5 -8.5s7.83301 -7.33398 8.5 -8.00098v-4h-211v4c0.666992 0.666992 4 3.66699 10 9s9.5 8.5 10.5 9.5s3.83301 4.16699 8.5 9.5s7.5 9.5 8.5 12.5s3.16699 7.83301 6.5 14.5s5.33301 13.167 6 19.5s2 14 4 23s3.16699 19 3.5 30
s0.5 23.167 0.5 36.5v215zM675.999 1257l-549 -790l549 25v765z" />
    <glyph glyph-name="five" unicode="5" horiz-adv-x="950" 
d="M436 0c-87.333 0 -158.507 9.49902 -213.507 28.499s-103.833 49.167 -146.5 90.5l49 237h4c0.666992 -60.667 8.83398 -113.5 24.501 -158.5s36.834 -79.667 63.501 -104s55.334 -42.166 86.001 -53.499s64 -17 100 -17c104.667 0 187.5 36 248.5 108
s91.5 165.667 91.5 281c0 73.333 -9.66699 138.5 -29 195.5s-45.666 102.5 -78.999 136.5s-70.666 59.333 -111.999 76s-85.333 24 -132 22c-111.333 -4 -197.333 -52.667 -258 -146l-20 -2l82 652h368c78.667 0 129.334 3 152.001 9c33.333 9.33301 64 30.666 92 63.999h2
l-21 -162h-571l-74 -501c68 74 161.667 112 281 114c123.333 0 225.333 -36.833 306 -110.5s120.667 -179.5 120 -317.5c-0.666992 -63.333 -10.5 -121 -29.5 -173s-43 -94.167 -72 -126.5s-62.333 -59.666 -100 -81.999s-74.167 -38 -109.5 -47
s-69.666 -13.5 -102.999 -13.5z" />
    <glyph glyph-name="six" unicode="6" horiz-adv-x="1050" 
d="M520 0c-68.667 0 -129.831 13.5029 -183.498 40.5029s-96.834 63.667 -129.501 110s-57.167 98.666 -73.5 156.999s-24.5 120.5 -24.5 186.5c0 216 58 398.333 174 547s272.333 255 469 319l2 -4c-279.333 -128 -448 -326 -506 -594c86 78 189 117 309 117
c127.333 0 224.666 -40.333 291.999 -121s101 -185.334 101 -314.001s-39.833 -234.834 -119.5 -318.501s-183.167 -125.5 -310.5 -125.5zM221.003 506.003c0 -40 3.49609 -81 10.4961 -123s18.667 -84.667 35 -128s36.333 -81.833 60 -115.5s54.334 -61.167 92.001 -82.5
s79.167 -32 124.5 -32c50.667 0 95.834 12 135.501 36s71.167 55.667 94.5 95s41 81.833 53 127.5s18 92.5 18 140.5c0 40.667 -4.33301 80.834 -13 120.501s-22.167 77.5 -40.5 113.5s-40.333 67.667 -66 95s-57.167 49 -94.5 65s-78 24 -122 24
c-47.333 0 -95.666 -10.833 -144.999 -32.5s-89.666 -49.834 -120.999 -84.501c-14 -56 -21 -129 -21 -219z" />
    <glyph glyph-name="seven" unicode="7" horiz-adv-x="911" 
d="M51 1139l49.0039 206.995h740l-2 -78c-42 -54 -82.167 -110 -120.5 -168s-79.333 -127.833 -123 -209.5s-81.834 -164 -114.501 -247s-61.334 -176 -86.001 -279s-40 -205.5 -46 -307.5c-4 -38 -21.667 -57 -53 -57c-16 0 -29.333 6 -40 18s-15 28 -13 48
c10.667 118.667 34.667 237.834 72 357.501s83 230.334 137 332.001s110 193.834 168 276.501s118 157.667 180 225h-428c-38.667 0 -67.334 -0.166992 -86.001 -0.5s-39.167 -2 -61.5 -5s-38.333 -6.33301 -48 -10s-22.167 -10.667 -37.5 -21s-28.333 -21.166 -39 -32.499
s-25.334 -27.666 -44.001 -48.999h-4z" />
    <glyph glyph-name="eight" unicode="8" horiz-adv-x="1032" 
d="M100 324c0 92.667 30.499 171.5 91.499 236.5s137.833 111.5 230.5 139.5c-41.333 18 -77 36.167 -107 54.5s-58.5 40.333 -85.5 66s-47.5 55.334 -61.5 89.001s-21 71.167 -21 112.5c0 93.333 37.833 173 113.5 239s170.5 99 284.5 99
c105.333 0 189.833 -27.5 253.5 -82.5s92.5 -131.167 86.5 -228.5c-3.33301 -51.333 -21.333 -98.666 -54 -141.999s-71 -78 -115 -104s-91.667 -46 -143 -60c40 -17.333 74.5 -33.333 103.5 -48s61.167 -33.834 96.5 -57.501s64 -48 86 -73s40.667 -55.333 56 -91
s23 -73.5 23 -113.5c0 -62.667 -12.167 -117.834 -36.5 -165.501s-57.5 -85.167 -99.5 -112.5s-88.667 -47.833 -140 -61.5s-106.666 -20.5 -165.999 -20.5c-54 -0 -103.667 5.83301 -149 17.5s-87 29.667 -125 54s-67.833 58 -89.5 101s-32.5 93.5 -32.5 151.5z
M452.999 688c-86.667 -32 -154.502 -79.334 -203.502 -142.001s-73.5 -134.667 -73.5 -216c0 -89.333 31.833 -162.5 95.5 -219.5s138.5 -85.5 224.5 -85.5c43.333 0 84.833 6 124.5 18s76 29.833 109 53.5s59.333 55.334 79 95.001s29.5 84.5 29.5 134.5
c0 32 -5.16699 62.333 -15.5 91s-25.833 54.167 -46.5 76.5s-42 42.5 -64 60.5s-49 35.333 -81 52s-59.667 30.334 -83 41.001s-51.666 23 -84.999 37l-3 1.5c-0.666992 0.333008 -1.66699 0.666016 -3 0.999023s-2.66602 0.833008 -3.99902 1.5zM239.997 1073
c0 -34.667 6.33203 -66.833 18.999 -96.5s27.834 -54.667 45.501 -75s41.5 -40.333 71.5 -60s56.667 -35 80 -46s53 -24.167 89 -39.5c72 23.333 134.667 62.833 188 118.5s80 122.5 80 200.5c0 72.667 -27.5 134.667 -82.5 186s-125.833 76 -212.5 74
c-83.333 -2 -150.5 -29.167 -201.5 -81.5s-76.5 -112.5 -76.5 -180.5z" />
    <glyph glyph-name="nine" unicode="9" horiz-adv-x="1048" 
d="M492 481c-126.667 0 -224.002 40.332 -292.002 120.999s-102 185 -102 313c0 128.667 39.833 235 119.5 319s183.167 126 310.5 126c68.667 0 130 -13.5 184 -40.5s97.167 -63.667 129.5 -110s56.833 -98.666 73.5 -156.999s25 -120.5 25 -186.5
c0 -216 -58 -398.333 -174 -547s-272.333 -255 -469 -319l-2 4c132.667 60.667 242.834 140.5 330.501 239.5s146.834 217.167 177.501 354.5c-88 -78 -191.667 -117 -311 -117zM204.998 935.999c0 -70 11.999 -136.001 35.999 -198.001s62.167 -114.167 114.5 -156.5
s114.166 -63.5 185.499 -63.5c48 0 96.5 10.833 145.5 32.5s89.167 49.834 120.5 84.501c14.667 52.667 22 125.667 22 219c0 40 -3.5 81 -10.5 123s-18.667 84.667 -35 128s-36.333 81.833 -60 115.5s-54.167 61.167 -91.5 82.5s-78.666 32 -123.999 32
c-50.667 0 -96.167 -12 -136.5 -36s-72.166 -55.667 -95.499 -95s-41 -81.833 -53 -127.5s-18 -92.5 -18 -140.5z" />
    <glyph glyph-name="colon" unicode=":" horiz-adv-x="499" 
d="M172 125c0 20.667 7.5 38.5 22.5 53.5s32.833 22.5 53.5 22.5c21.333 0 39.333 -7.5 54 -22.5s22 -32.833 22 -53.5c0 -21.333 -7.33301 -39.333 -22 -54s-32.667 -22 -54 -22c-20.667 0 -38.5 7.33301 -53.5 22s-22.5 32.667 -22.5 54zM172 764
c0 20.667 7.5 38.5 22.5 53.5s32.833 22.5 53.5 22.5c21.333 0 39.333 -7.5 54 -22.5s22 -32.833 22 -53.5c0 -21.333 -7.33301 -39.333 -22 -54s-32.667 -22 -54 -22c-20.667 0 -38.5 7.33301 -53.5 22s-22.5 32.667 -22.5 54z" />
    <glyph glyph-name="semicolon" unicode=";" horiz-adv-x="501" 
d="M250 0c-21.333 0 -39.167 6.83301 -53.5 20.5s-21.166 32.167 -20.499 55.5c1.33301 18.667 9.33301 34.834 24 48.501s32 20.5 52 20.5c22 0 40.167 -7.33301 54.5 -22s21.5 -33 21.5 -55c0 -50 -30.667 -104 -92 -162l-19 12
c31.333 33.333 52.666 62.666 63.999 87.999c-10 -4 -20.333 -6 -31 -6zM175.999 764c0 20.667 7.16699 38.5 21.5 53.5s31.833 22.5 52.5 22.5c21.333 0 39.333 -7.5 54 -22.5s22 -32.833 22 -53.5c0 -21.333 -7.33301 -39.333 -22 -54s-32.667 -22 -54 -22
c-20.667 0 -38.167 7.33301 -52.5 22s-21.5 32.667 -21.5 54z" />
    <glyph glyph-name="less" unicode="&#x3c;" horiz-adv-x="776" 
d="M82 496l584 413l8 -30l-557 -400l557 -434l-8 -31l-584 453v29z" />
    <glyph glyph-name="equal" unicode="=" horiz-adv-x="798" 
d="M672 803h-537v33l537 -2v-31zM135 500h537v-29h-537v29z" />
    <glyph glyph-name="greater" unicode="&#x3e;" horiz-adv-x="788" 
d="M692 428l-583 -414l-9 31l557 397l-557 437l9 30l583 -454v-27z" />
    <glyph glyph-name="question" unicode="?" horiz-adv-x="927" 
d="M463 1360c52 0 101.005 -6.49902 147.005 -19.499s87.5 -32.167 124.5 -57.5s66 -59.333 87 -102s30.5 -91.667 28.5 -147c-2 -54 -16.833 -105.667 -44.5 -155s-61 -90.833 -100 -124.5s-82.833 -64.5 -131.5 -92.5s-91.834 -49.167 -129.501 -63.5
s-71.834 -25.5 -102.501 -33.5v-196h-12l-41 198c76.667 25.333 150.667 65.833 222 121.5s129.333 118.667 174 189s67 136.833 67 199.5c0 77.333 -27.333 140.666 -82 189.999s-133.334 72 -236.001 68c-50.667 -2 -95.334 -13.833 -134.001 -35.5
s-68.834 -49.667 -90.501 -84s-36.667 -72.5 -45 -114.5s-9.16602 -85.333 -2.49902 -130h-2l-84 246c37.333 44 92.666 78.833 165.999 104.5s147 38.5 221 38.5zM276.005 76.001c0 20.667 7.5 38.5 22.5 53.5s32.833 22.5 53.5 22.5s38.5 -7.5 53.5 -22.5
s22.5 -32.833 22.5 -53.5c0 -21.333 -7.5 -39.333 -22.5 -54s-32.833 -22 -53.5 -22s-38.5 7.33301 -53.5 22s-22.5 32.667 -22.5 54z" />
    <glyph glyph-name="at" unicode="@" horiz-adv-x="1667" 
d="M850 1348c100 0 192.663 -14.834 277.996 -44.501s159.5 -72.167 222.5 -127.5s112.333 -125.666 148 -210.999s53.5 -181 53.5 -287c0 -65.333 -6.16699 -125.666 -18.5 -180.999s-30.833 -105.333 -55.5 -150s-58.167 -79.834 -100.5 -105.501
s-91.166 -38.5 -146.499 -38.5c-47.333 0 -86.666 13.833 -117.999 41.5s-50 64.167 -56 109.5c-36.667 -32.667 -71.667 -56.167 -105 -70.5s-75.666 -21.5 -126.999 -21.5c-109.333 0 -194 34.667 -254 104s-90 164.333 -90 285c0 128 34.167 231.667 102.5 311
s166.833 119 295.5 119c82 0 146.5 -24.167 193.5 -72.5s70.5 -113.5 70.5 -195.5v-342c0 -67.333 10.167 -123 30.5 -167s53.833 -66 100.5 -66c46 0 86.167 14.333 120.5 43s60.833 66 79.5 112s32.334 93 41.001 141s13 96 13 144c0 136 -29.667 253.167 -89 351.5
s-139.5 171.833 -240.5 220.5s-217.167 73 -348.5 73c-78.667 0 -154 -10.167 -226 -30.5s-137.667 -50 -197 -89s-111 -85.5 -155 -139.5s-78.167 -116.333 -102.5 -187s-36.5 -146 -36.5 -226c0 -95.333 17.5 -183.166 52.5 -263.499s82.833 -147.833 143.5 -202.5
s132.5 -97.167 215.5 -127.5s171.833 -45.5 266.5 -45.5c152 0 261.333 34.333 328 103l18 -17c-72 -73.333 -187.333 -110 -346 -110c-97.333 0 -188.833 15.833 -274.5 47.5s-160 75.834 -223 132.501s-112.833 126.667 -149.5 210s-55 174.333 -55 273
c0 137.333 33.667 259.666 101 366.999s157 189.166 269 245.499s235.667 84.5 371 84.5zM581.996 640.999c0 -111.333 24.002 -198.168 72.002 -260.501s119.333 -91.5 214 -87.5c82.667 2.66699 143.667 34 183 94v440c0 40.667 -5.83301 76.667 -17.5 108
s-27.167 55.833 -46.5 73.5s-39.833 30.834 -61.5 39.501s-43.5 13 -65.5 13c-60.667 0 -112.334 -19.333 -155.001 -58s-73.834 -89 -93.501 -151s-29.5 -132.333 -29.5 -211z" />
    <glyph glyph-name="A" unicode="A" horiz-adv-x="1122" 
d="M47 16c20 24.667 35.834 49.1709 47.501 73.5039s27.167 63.5 46.5 117.5l375 1026c4 10 2.5 25.667 -4.5 47s-17.167 41.666 -30.5 60.999v5h111l405 -1190c17.333 -56.667 42.666 -103.334 75.999 -140.001v-4h-188v4c24 39.333 24 94.666 0 165.999l-105 312h-508
l-104 -287c-12.667 -38.667 -15.5 -74.834 -8.5 -108.501s22.167 -61.167 45.5 -82.5v-4h-158v4zM281.001 518.004h491l-235 703z" />
    <glyph glyph-name="B" unicode="B" horiz-adv-x="1083" 
d="M80 1341l0.00195312 4.99707h338c43.333 0 83.166 -1.66699 119.499 -5s74.333 -9.33301 114 -18s74.5 -21.5 104.5 -38.5s57.333 -38 82 -63s43.667 -56.667 57 -95s20 -82.166 20 -131.499c0 -79.333 -23.333 -146.166 -70 -200.499s-115.334 -85.166 -206.001 -92.499
c109.333 -8.66699 197.5 -41.667 264.5 -99s100.5 -141 100.5 -251c0 -44.667 -5.16699 -84.5 -15.5 -119.5s-23.833 -64.167 -40.5 -87.5s-38.5 -43.5 -65.5 -60.5s-53.5 -30.167 -79.5 -39.5s-57.5 -16.5 -94.5 -21.5s-70.167 -8.16699 -99.5 -9.5s-64.333 -2 -105 -2
h-424v4c24.667 20 40.334 41.833 47.001 65.5s10 65.5 10 125.5v940c0 60 -3.33301 102.333 -10 127s-22.334 47 -47.001 67zM446.002 683.997h-213v-647h234c156.667 0 267.5 25 332.5 75s97.5 127.333 97.5 232c0 122.667 -37.833 210 -113.5 262s-188.167 78 -337.5 78z
M416.002 1321l-183.001 -0.00195312v-612h193c140 0 239.833 23.333 299.5 70s89.5 117.334 89.5 212.001c0 108.667 -30.667 190.834 -92 246.501s-163.666 83.5 -306.999 83.5z" />
    <glyph glyph-name="C" unicode="C" horiz-adv-x="1247" 
d="M100 711c4.66699 132 36.333 247.67 95 347.003s136.167 174.5 232.5 225.5s204.5 76.5 324.5 76.5c86.667 0 158.167 -10.167 214.5 -30.5s110.166 -51.833 161.499 -94.5l-75 -236h-4c2 98.667 -25.167 179 -81.5 241s-133.166 93 -230.499 93
c-86.667 0 -163.5 -14.5 -230.5 -43.5s-121.5 -69.833 -163.5 -122.5s-74.5 -113.834 -97.5 -183.501s-36.5 -147.5 -40.5 -233.5c-4 -100.667 6.33301 -196.834 31 -288.501s65.334 -169.167 122.001 -232.5c99.333 -110.667 228.333 -166 387 -166
c88 0 174.333 24.167 259 72.5s148.667 117.833 192 208.5l6 -4c-40 -104.667 -102.833 -187.5 -188.5 -248.5s-187.834 -91.5 -306.501 -91.5c-84 0 -160.333 12.167 -229 36.5s-126.667 57.833 -174 100.5s-87 94 -119 154s-54.833 125.167 -68.5 195.5
s-19.167 145.166 -16.5 224.499z" />
    <glyph glyph-name="D" unicode="D" horiz-adv-x="1183" 
d="M475 12h-395v4c24.667 20 40.334 41.833 47.001 65.5s10 65.5 10 125.5v940c0 60 -3.33301 102.333 -10 127s-22.334 47 -47.001 67v5h395c194 0 343.833 -57.5 449.5 -172.5s158.5 -282.167 158.5 -501.5c0 -218 -52.5 -382.5 -157.5 -493.5
s-255.167 -166.5 -450.5 -166.5zM233 37h173c379.333 0 569 213 569 639c0 430 -189.667 645 -569 645h-173v-1284z" />
    <glyph glyph-name="E" unicode="E" horiz-adv-x="968" 
d="M870 12l-789.997 0.000976562v4c24.667 20 40.667 42.333 48 67s11 66.667 11 126v940c0 59.333 -3.5 101.5 -10.5 126.5s-22.5 47.5 -46.5 67.5v5l747 -2l35 -228h-4c-28 41.333 -57.5 76 -88.5 104s-62.5 49 -94.5 63s-62.333 23.833 -91 29.5s-59.334 8.5 -92.001 8.5
h-261v-633h267c52.667 0 95.667 7.83301 129 23.5s65.333 49.5 96 101.5h2v-264h-2c-32 46.667 -64.667 77.5 -98 92.5s-75.666 22.5 -126.999 22.5h-267v-629h312h17c28.667 0 50.667 0.333008 66 1s36.166 4.16699 62.499 10.5s49.166 15.666 68.499 27.999
s41.666 30.833 66.999 55.5s50.333 55 75 91h4z" />
    <glyph glyph-name="F" unicode="F" horiz-adv-x="921" 
d="M313 12h-233l2 6c23.333 18.667 38.333 40.5 45 65.5s10 67.5 10 127.5v938c1.33301 58.667 -1.5 100.667 -8.5 126s-22.5 48 -46.5 68v5l747 -2l33 -228h-4c-53.333 78.667 -110 132.5 -170 161.5s-124.667 43.5 -194 43.5h-261v-633h265
c53.333 0 96.833 7.83301 130.5 23.5s65.834 49.5 96.501 101.5h2v-264h-2c-32.667 46.667 -65.834 77.5 -99.501 92.5s-76.167 22.5 -127.5 22.5h-265v-459c0 -52.667 6.16699 -91.667 18.5 -117s32.833 -50 61.5 -74v-4z" />
    <glyph glyph-name="G" unicode="G" horiz-adv-x="1294" 
d="M752 1360c78 0 146.167 -9.16504 204.5 -27.498s114.833 -50.833 169.5 -97.5l-73 -236h-4c2 98 -25.167 178.167 -81.5 240.5s-133.166 93.5 -230.499 93.5c-91.333 0 -171.833 -16.333 -241.5 -49s-125.5 -77.834 -167.5 -135.501s-73.333 -123.5 -94 -197.5
s-31 -155.333 -31 -244c0 -128.667 24.833 -243.667 74.5 -345s123.167 -181.5 220.5 -240.5s211.333 -88.5 342 -88.5c72.667 0 140 14.333 202 43v450c0 45.333 -14 80.666 -42 105.999s-66.333 45.333 -115 60v4l332 -2v-4c-30.667 -16 -51.334 -37.333 -62.001 -64
s-16 -60 -16 -100v-434c-72 -36.667 -137.833 -61.167 -197.5 -73.5s-133.167 -18.5 -220.5 -18.5c-96.667 -0 -184.5 17.333 -263.5 52s-144.333 82.5 -196 143.5s-91.5 132.333 -119.5 214s-42 169.834 -42 264.501c0 131.333 26 248.666 78 351.999
s127.833 184.833 227.5 244.5s215.167 89.5 346.5 89.5z" />
    <glyph glyph-name="H" unicode="H" horiz-adv-x="1150" 
d="M80 12l2 6.00391c23.333 18.667 38.333 40.5 45 65.5s10 67.5 10 127.5v936c0 60 -3.33301 102.333 -10 127s-21.667 47 -45 67v5h231v-5c-28 -22.667 -48.333 -46.834 -61 -72.501s-19 -64.834 -19 -117.501v-424h695v424c0 53.333 -6.16699 92.833 -18.5 118.5
s-32.833 49.5 -61.5 71.5v5h233v-5c-24.667 -20 -40.334 -42.333 -47.001 -67s-10 -67 -10 -127v-936c0 -60 3.33301 -102.5 10 -127.5s22.334 -46.833 47.001 -65.5v-6h-233v4c28.667 23.333 49.167 47.666 61.5 72.999s18.5 64.666 18.5 117.999v495h-695v-495
c0 -52.667 6.16699 -91.667 18.5 -117s32.833 -50 61.5 -74v-4h-233z" />
    <glyph glyph-name="I" unicode="I" horiz-adv-x="360" 
d="M293 12h-211v6c24.667 18.667 40.334 40.5 47.001 65.5s10 67.5 10 127.5v936c0 60 -3.33301 102.333 -10 127s-22.334 47 -47.001 67v5h211v-5c-24.667 -20 -40.334 -42.333 -47.001 -67s-10 -67 -10 -127v-936c0 -60 3.33301 -102.5 10 -127.5
s22.334 -46.833 47.001 -65.5v-6z" />
    <glyph glyph-name="J" unicode="J" horiz-adv-x="669" 
d="M293 0c-100.667 0 -179.332 21.9971 -235.999 65.9971l11 204h2c16.667 -49.333 34 -90.666 52 -123.999s36.833 -58.333 56.5 -75s38.334 -28.334 56.001 -35.001s37.167 -10.334 58.5 -11.001c22 0 42 4.33301 60 13s32.667 19.334 44 32.001
s21.166 29.334 29.499 50.001s14.5 39.834 18.5 57.501s7.16699 38.834 9.5 63.501s3.66602 44.5 3.99902 59.5s0.5 32.833 0.5 53.5v797c0 53.333 -6.16699 92.833 -18.5 118.5s-32.833 49.5 -61.5 71.5v5h233v-5c-24.667 -20 -40.334 -42.333 -47.001 -67
s-10 -67 -10 -127l-2 -789c0 -30.667 -0.5 -57.167 -1.5 -79.5s-3.66699 -46.666 -8 -72.999s-10.166 -48.833 -17.499 -67.5s-17.333 -37.334 -30 -56.001s-28 -33.5 -46 -44.5s-40.333 -20 -67 -27s-56.667 -10.5 -90 -10.5z" />
    <glyph glyph-name="K" unicode="K" horiz-adv-x="1083" 
d="M80 12l1.99902 6.00195c23.333 18.667 38.333 40.5 45 65.5s10 67.5 10 127.5v936c0 60 -3.33301 102.333 -10 127s-21.667 47 -45 67v5h231v-5c-28 -22.667 -48.333 -46.834 -61 -72.501s-19 -64.834 -19 -117.501v-561l465 502c22 23.333 39.333 43.333 52 60
s24.834 37 36.501 61s13.834 46.833 6.50098 68.5s-24 41.5 -50 59.5v5h226v-5l-498 -534l442 -625c73.333 -100.667 115.666 -156 126.999 -166v-4h-204v4c24 38 21 78.333 -9 121l-421 598l-173 -182v-346c0 -52.667 6.16699 -91.667 18.5 -117s32.833 -50 61.5 -74v-4
h-233z" />
    <glyph glyph-name="L" unicode="L" horiz-adv-x="985" 
d="M80 1341v5h211v-5c-24.667 -20 -40.5 -42.333 -47.5 -67s-10.5 -67 -10.5 -127v-1110h312h17c20.667 0 36.334 0.166992 47.001 0.5s25.667 1.5 45 3.5s35.166 5.33301 47.499 10s27.5 11.5 45.5 20.5s34.5 20 49.5 33s31.5 29.5 49.5 49.5s35.667 43 53 69h6l-35 -211
h-790v4c24.667 20 40.334 42.5 47.001 67.5s10 67.5 10 127.5v936c0 60 -3.33301 102.333 -10 127s-22.334 47 -47.001 67z" />
    <glyph glyph-name="M" unicode="M" horiz-adv-x="1458" 
d="M147 1147c0 54 -5.83398 94.167 -17.501 120.5s-31.5 50.833 -59.5 73.5v5h166l509 -1190l474 1190h159v-5c-24.667 -20 -40.334 -42.333 -47.001 -67s-10 -67 -10 -127v-936c0 -60 3.33301 -102.5 10 -127.5s22.334 -47.5 47.001 -67.5v-4h-215v4
c24.667 20.667 40.834 43.167 48.501 67.5s11.5 66.833 11.5 127.5v1077l-506 -1276h-12l-535 1235v-1036c0 -44.667 8.16699 -82.5 24.5 -113.5s44.5 -58.167 84.5 -81.5v-4h-209v4c51.333 35.333 77 100.333 77 195v936z" />
    <glyph glyph-name="N" unicode="N" horiz-adv-x="1161" 
d="M70 1341v5h153l789 -1211l2 1012c0 44 -8.16699 81.5 -24.5 112.5s-44.5 58.167 -84.5 81.5v5h209v-5c-52 -35.333 -78 -100 -78 -194v-1135h-57l-809 1235v-1036c0 -44.667 8.16699 -82.5 24.5 -113.5s44.5 -58.167 84.5 -81.5v-4h-209v4
c51.333 35.333 77 100.333 77 195v936c0 54 -5.83301 94.167 -17.5 120.5s-31.5 50.833 -59.5 73.5z" />
    <glyph glyph-name="O" unicode="O" horiz-adv-x="1368" 
d="M100 643c0 108 17.001 207.5 51.001 298.5s79.667 166.667 137 227s123.666 107.333 198.999 141s154.666 50.5 237.999 50.5c164.667 0 296.334 -55 395.001 -165s148 -267.333 148 -472c0 -106 -17.167 -204.667 -51.5 -296s-80.333 -167.833 -138 -229.5
s-124.5 -110 -200.5 -145s-155 -52.5 -237 -52.5c-162.667 0 -293.5 56.167 -392.5 168.5s-148.5 270.5 -148.5 474.5zM205.001 743c-0.666992 -54 1.49902 -106.33 6.49902 -156.997s13.667 -103.334 26 -158.001s30.333 -104.5 54 -149.5s52.334 -85.667 86.001 -122
s76.167 -64.666 127.5 -84.999s109 -30.5 173 -30.5c68.667 0 130.5 10.833 185.5 32.5s100.833 51 137.5 88s67.334 81 92.001 132s42.5 104.167 53.5 159.5s17.167 114 18.5 176c1.33301 65.333 -1.83398 128.333 -9.50098 189s-22.334 122.167 -44.001 184.5
s-50 116.166 -85 161.499s-81.667 82.5 -140 111.5s-125.166 43.5 -200.499 43.5c-68 0 -129.333 -10.5 -184 -31.5s-100 -49.333 -136 -85s-66 -78.334 -90 -128.001s-41.5 -101.834 -52.5 -156.501s-17.167 -113 -18.5 -175z" />
    <glyph glyph-name="P" unicode="P" horiz-adv-x="1044" 
d="M313 12h-232.999l2 6c23.333 18.667 38.333 40.5 45 65.5s10 67.5 10 127.5v936c0 60 -3.33301 102.333 -10 127s-21.667 47 -45 67v5h369c67.333 0 130.5 -7.66699 189.5 -23s112.667 -38.666 161 -69.999s86.5 -73.833 114.5 -127.5s42 -116.167 42 -187.5
c0 -41.333 -4.66699 -79.5 -14 -114.5s-21.333 -65.167 -36 -90.5s-33.667 -48.166 -57 -68.499s-46.5 -37 -69.5 -50s-50.5 -24.167 -82.5 -33.5s-60.5 -16.333 -85.5 -21s-54.667 -8.33398 -89 -11.001s-62.333 -4.33398 -84 -5.00098s-47.834 -1 -78.501 -1h-129v-336
c0 -52.667 6.16699 -91.667 18.5 -117s32.833 -50 61.5 -74v-4zM233.001 567l199 -0.000976562c135.333 0 238.5 31.167 309.5 93.5s106.5 151.5 106.5 267.5c0 136.667 -41.833 236.334 -125.5 299.001s-208.5 94 -374.5 94h-115v-754z" />
    <glyph glyph-name="Q" unicode="Q" horiz-adv-x="1341" 
d="M725 1360c164.667 0 296.333 -55.001 395 -165.001s148 -267.333 148 -472c0 -103.333 -16.333 -199.666 -49 -288.999s-76.334 -164.666 -131.001 -225.999s-118.167 -110.333 -190.5 -147s-148.166 -57 -227.499 -61c20 -6 39.333 -13.667 58 -23
s41.167 -21.666 67.5 -36.999s46.5 -26.666 60.5 -33.999c82.667 -42.667 165.334 -64 248.001 -64c78.667 0 144 28 196 84l5 -2c-68.667 -94 -174.667 -141 -318 -141c-83.333 0 -169.333 26 -258 78c-8.66699 5.33301 -24.834 15.666 -48.501 30.999
s-41.167 26.166 -52.5 32.499s-26.666 14.166 -45.999 23.499s-37.666 16 -54.999 20s-35.333 6.33301 -54 7c-55.333 2 -101 -22.333 -137 -73l-2 2c38 64.667 93.333 102 166 112c-123.333 30 -220.833 99 -292.5 207s-107.5 248 -107.5 420c0 108 17 207.5 51 298.5
s79.667 166.667 137 227s123.666 107.333 198.999 141s154.666 50.5 237.999 50.5zM677.999 40.999c68.667 0 130.499 10.8359 185.499 32.5029s100.833 51 137.5 88s67.334 81 92.001 132s42.5 104.167 53.5 159.5s17.167 114 18.5 176
c1.33301 65.333 -1.83398 128.333 -9.50098 189s-22.334 122.167 -44.001 184.5s-50 116.166 -85 161.499s-81.667 82.5 -140 111.5s-125.166 43.5 -200.499 43.5c-68 0 -129.333 -10.5 -184 -31.5s-100 -49.333 -136 -85s-66 -78.334 -90 -128.001
s-41.5 -101.834 -52.5 -156.501s-17.167 -113 -18.5 -175c-0.666992 -54 1.5 -106.333 6.5 -157s13.667 -103.334 26 -158.001s30.333 -104.5 54 -149.5s52.334 -85.667 86.001 -122s76.167 -64.666 127.5 -84.999s109 -30.5 173 -30.5z" />
    <glyph glyph-name="R" unicode="R" horiz-adv-x="1067" 
d="M313 12l-233 -0.000976562l2 6c23.333 18.667 38.333 40.5 45 65.5s10 67.5 10 127.5v936c0 60 -3.33301 102.333 -10 127s-21.667 47 -45 67v5h369c67.333 0 130.5 -7.66699 189.5 -23s112.667 -38.666 161 -69.999s86.5 -73.833 114.5 -127.5s42 -116.167 42 -187.5
c0 -202 -105 -326.333 -315 -373l375 -549v-4h-172v4c6 14.667 8.66699 31 8 49s-4 31 -10 39l-303 439h-308v-336c0 -52.667 6.16699 -91.667 18.5 -117s32.833 -50 61.5 -74v-4zM348 1321l-115 -0.000976562v-754h199c135.333 0 238.5 31.167 309.5 93.5
s106.5 151.5 106.5 267.5c0 136.667 -41.833 236.334 -125.5 299.001s-208.5 94 -374.5 94z" />
    <glyph glyph-name="S" unicode="S" horiz-adv-x="1007" 
d="M494 0c-147.333 0 -285.336 31.334 -414.003 94.001v314h6c32.667 -128.667 79.667 -224.667 141 -288s151 -95 269 -95c60 0 114.667 10 164 30s89.833 51.667 121.5 95s47.5 95 47.5 155c0 40.667 -7.16699 77.334 -21.5 110.001s-35.333 61.334 -63 86.001
s-56.167 45.5 -85.5 62.5s-64.666 34.5 -105.999 52.5c-20 8.66699 -46.667 19.667 -80 33s-61.166 24.5 -83.499 33.5s-48.333 20.667 -78 35s-54.5 27.666 -74.5 39.999s-40.833 27.666 -62.5 45.999s-38.667 37.166 -51 56.499s-22.666 41.833 -30.999 67.5
s-12.5 53.167 -12.5 82.5c0 68 20.5 129.333 61.5 184s93 96 156 124s129.833 42 200.5 42c84 0 153.5 -6.83301 208.5 -20.5s119.167 -41.167 192.5 -82.5l-45 -213h-2c-20.667 94.667 -64.334 166.834 -131.001 216.501s-146 74.5 -238 74.5c-46 0 -91.333 -9 -136 -27
s-83.667 -46.167 -117 -84.5s-51.333 -82.833 -54 -133.5c-0.666992 -22.667 0.833008 -44.334 4.5 -65.001s8.83398 -39.167 15.501 -55.5s16.334 -32.333 29.001 -48s24.667 -29.334 36 -41.001s26.666 -23.667 45.999 -36s36.166 -22.5 50.499 -30.5
s33.333 -17.167 57 -27.5s43 -18.666 58 -24.999s35.5 -14.5 61.5 -24.5s46 -18 60 -24c70.667 -29.333 127.834 -57.166 171.501 -83.499s79.834 -59.5 108.501 -99.5c37.333 -52.667 56.166 -111.334 56.499 -176.001s-18.5 -122.667 -56.5 -174
c-88 -120 -214.667 -180 -380 -180z" />
    <glyph glyph-name="T" unicode="T" horiz-adv-x="1175" 
d="M59 1118l33 228h987l33 -228h-4c-28 41.333 -57.5 76 -88.5 104s-62.5 48.833 -94.5 62.5s-62.333 23.167 -91 28.5s-59.667 8 -93 8h-106v-1110c0 -59.333 3.5 -101.5 10.5 -126.5s22.5 -47.167 46.5 -66.5v-6h-211v6c24.667 18.667 40.5 40.5 47.5 65.5
s10.5 67.5 10.5 127.5v1110h-109c-33.333 0 -64.333 -2.66699 -93 -8s-59 -14.833 -91 -28.5s-63.5 -34.5 -94.5 -62.5s-60.5 -62.667 -88.5 -104h-4z" />
    <glyph glyph-name="U" unicode="U" horiz-adv-x="1155" 
d="M125 1147c0 60 -3.33105 102.331 -9.99805 126.998s-22.334 47 -47.001 67v5h223v-5c-26.667 -21.333 -45 -45.166 -55 -71.499s-15 -67.166 -15 -122.499v-666c0 -138 35.833 -246.5 107.5 -325.5s173.834 -116.5 306.501 -112.5c114 4 202.167 42.667 264.5 116
s93.5 180 93.5 320v668c1.33301 44.667 -5.83398 82.334 -21.501 113.001s-43.834 57.667 -84.501 81v5h209v-5c-52 -35.333 -78 -100 -78 -194v-682c0 -64.667 -8.16699 -124.167 -24.5 -178.5s-41.333 -103.333 -75 -147s-79.167 -77.834 -136.5 -102.501
s-124 -37 -200 -37c-304.667 0 -457 166.667 -457 500v647z" />
    <glyph glyph-name="V" unicode="V" horiz-adv-x="1216" 
d="M59 1346h187v-5c-14 -23.333 -21.167 -45.5 -21.5 -66.5s3.5 -41.167 11.5 -60.5l393 -1081l370 973c13.333 28 19.333 67.333 18 118s-11.333 89.667 -30 117v5h170v-5c-27.333 -30.667 -50.833 -64 -70.5 -100s-41.167 -86.333 -64.5 -151l-412 -1078h-39l-446 1229
c-16 40.667 -38 74 -66 100v5z" />
    <glyph glyph-name="W" unicode="W" horiz-adv-x="1810" 
d="M59 1346l187 0.000976562v-5c-14 -23.333 -21.167 -45.5 -21.5 -66.5s3.5 -41.167 11.5 -60.5l391 -1071l264 840l-90 258c-11.333 36 -33.333 69.333 -66 100v5h187v-5c-14 -23.333 -21.333 -45.5 -22 -66.5s3 -41.167 11 -60.5l379 -1073l303 965
c13.333 36.667 19.333 78.167 18 124.5s-11.333 83.166 -30 110.499v5h170v-5c-57.333 -63.333 -102.333 -147 -135 -251l-340 -1078h-41l-330 932l-295 -932h-39l-446 1229c-16 40.667 -38 74 -66 100v5z" />
    <glyph glyph-name="X" unicode="X" horiz-adv-x="1091" 
d="M59 1346l199.003 0.000976562v-5c-6.66699 -18 -10.334 -34.5 -11.001 -49.5s2.16602 -30.5 8.49902 -46.5s12 -28.5 17 -37.5s13.833 -23.167 26.5 -42.5l279 -442l217 338c37.333 58 60.333 112 69 162s-1.33301 89.333 -30 118v5h163v-5l-405 -641l338 -534
c45.333 -74.667 80.666 -124.667 105.999 -150v-4h-190v6c8 27.333 7.5 54.5 -1.5 81.5s-24.167 58.167 -45.5 93.5l-275 434l-209 -330c-23.333 -37.333 -41.333 -73.833 -54 -109.5s-18.167 -68.834 -16.5 -99.501s12.167 -54 31.5 -70v-6h-167v4l401 633l-344 545
c-56 84.667 -91.667 133.667 -107 147v5z" />
    <glyph glyph-name="Y" unicode="Y" horiz-adv-x="1198" 
d="M59 1341v5.00098h185v-5c-7.33301 -29.333 -9.16602 -54 -5.49902 -74s14.167 -43.667 31.5 -71l402 -633l291 543c52 100.667 61.333 179 28 235v5h150v-5c-38 -40 -91.333 -123.667 -160 -251l-301 -566v-313c0 -60 3.33301 -102.5 10 -127.5s21.667 -46.833 45 -65.5
v-6h-209v6c24 19.333 39.667 41.666 47 66.999s11 67.333 11 126v311l-430 680c-42.667 68.667 -74.334 115 -95.001 139z" />
    <glyph glyph-name="Z" unicode="Z" horiz-adv-x="995" 
d="M76 16l695.998 1305h-293c-167.333 2.66699 -297.666 -63.666 -390.999 -198.999h-4l35 224h774v-5l-696 -1304h297c45.333 0 86.833 3.66699 124.5 11s69.667 16.5 96 27.5s52.833 26.833 79.5 47.5s48.834 40 66.501 58s39.5 42.333 65.5 73h4l-49 -242h-805v4z" />
    <glyph glyph-name="bracketleft" unicode="[" horiz-adv-x="548" 
d="M479 -117h-356v1608h356v-10l-262 -17v-1554l262 -16v-11z" />
    <glyph glyph-name="backslash" unicode="\" horiz-adv-x="974" 
d="M133 1464h31l645 -1640h-33z" />
    <glyph glyph-name="bracketright" unicode="]" horiz-adv-x="559" 
d="M332 1464l-260 17v10h356v-1608h-356v11l260 16v1554z" />
    <glyph glyph-name="asciicircum" unicode="^" horiz-adv-x="911" 
d="M96 1061l338 381h64l346 -381h-41l-340 348l-326 -348h-41z" />
    <glyph glyph-name="underscore" unicode="_" horiz-adv-x="1015" 
d="M141 12v31h760v-31h-760z" />
    <glyph glyph-name="grave" unicode="`" horiz-adv-x="481" 
d="M340 1061l-221 151l84 66l143 -217h-6z" />
    <glyph glyph-name="a" unicode="a" horiz-adv-x="888" 
d="M57 211c0 68 21.8301 121.666 65.4971 160.999s105.834 71 186.501 95c79.333 22.667 187.333 43.667 324 63v134c0 66.667 -17.667 121.334 -53 164.001s-86 63.667 -152 63c-62 -2 -117.5 -22.667 -166.5 -62s-82.833 -86.333 -101.5 -141h-4l-35 150
c76 48.667 177.667 73 305 73c199.333 0 299 -90.667 299 -272v-510c0 -26 8 -45.167 24 -57.5s36 -18.5 60 -18.5c20.667 0 39.667 4.33301 57 13l2 -5c-11.333 -14.667 -30.166 -28.5 -56.499 -41.5s-53.166 -19.5 -80.499 -19.5c-30.667 0 -54 10.667 -70 32
s-24.667 43.333 -26 66c-102 -65.333 -216 -98 -342 -98c-70 0 -126.833 18 -170.5 54s-65.5 88.333 -65.5 157zM345.997 433.999c-122.667 -45.333 -183.999 -114.333 -183.999 -207c0 -62 18.667 -109.167 56 -141.5s87.666 -48.5 150.999 -48.5
c80.667 0 168.667 28 264 84v389c-120 -22.667 -215.667 -48 -287 -76z" />
    <glyph glyph-name="b" unicode="b" horiz-adv-x="927" 
d="M45 1341l0.00195312 4.99902c22 2.66699 50 12.5 84 29.5s59.333 32.833 76 47.5h2l2 -637c21.333 18.667 38.666 32.834 51.999 42.501s32.833 22.167 58.5 37.5s53.667 26.666 84 33.999s63.166 11 98.499 11c108.667 0 193.5 -40.667 254.5 -122s91.5 -190 91.5 -326
c0 -62 -7.83301 -119.833 -23.5 -173.5s-39.667 -102.5 -72 -146.5s-76.5 -78.833 -132.5 -104.5s-120.667 -38.5 -194 -38.5c-105.333 0 -185.333 30.667 -240 92l-65 -92h-4v1219c0 66.667 -24 107.334 -72 122.001zM442.002 867.999
c-78 0 -156.332 -36.667 -234.999 -110v-594c15.333 -51.333 43.5 -88.166 84.5 -110.499s87.167 -33.5 138.5 -33.5c98.667 0 175.167 37.667 229.5 113s81.5 175.666 81.5 300.999c0 40.667 -2.83301 80.167 -8.5 118.5s-15.834 77 -30.501 116s-33 73 -55 102
s-50.5 52.5 -85.5 70.5s-74.833 27 -119.5 27z" />
    <glyph glyph-name="c" unicode="c" 
d="M489 0c-127.333 0 -227.332 42.166 -299.999 126.499s-108.334 190.166 -107.001 317.499c0.666992 47.333 6.5 93.333 17.5 138s28.5 87 52.5 127s53 74.833 87 104.5s76 53.334 126 71.001s105 26.5 165 26.5c91.333 0 174.666 -24.333 249.999 -73l-57 -181l-4 2
c-8 76 -33.5 133 -76.5 171s-100.167 57 -171.5 57c-60 0 -113.167 -20.5 -159.5 -61.5s-80.666 -94.667 -102.999 -161s-31.166 -137.5 -26.499 -213.5c4 -52 14.333 -101.167 31 -147.5s39.167 -88.166 67.5 -125.499s64.666 -66.833 108.999 -88.5
s93.5 -32.5 147.5 -32.5s107.667 11.667 161 35s99.333 57 138 101h4c-76 -128.667 -193 -193 -351 -193z" />
    <glyph glyph-name="d" unicode="d" horiz-adv-x="923" 
d="M510 911c88.667 0 159.002 -19.668 211.002 -59.001v367c0 66.667 -24 107.334 -72 122.001v5c22.667 2.66699 50.667 12.5 84 29.5s58.666 32.833 75.999 47.5h6v-1319l39 -77v-4l-127 -23h-6v119c-33.333 -36 -74.5 -64.833 -123.5 -86.5s-102.833 -32.5 -161.5 -32.5
c-111.333 -0 -198.5 40.833 -261.5 122.5s-94.5 190.5 -94.5 326.5c0 64 8.33301 123.167 25 177.5s41.667 103 75 146s78.166 76.833 134.499 101.5s121.5 37 195.5 37zM485.002 44.999c43.333 0 86.168 9.50098 128.501 28.501s78.166 43.5 107.499 73.5v601
c-8 26.667 -19.833 49.667 -35.5 69s-34 34.166 -55 44.499s-42.333 17.833 -64 22.5s-44.5 7 -68.5 7c-98.667 0 -175.334 -37.667 -230.001 -113s-82 -175.666 -82 -300.999c0 -40.667 2.83301 -80.167 8.5 -118.5s15.834 -76.833 30.501 -115.5s33 -72.334 55 -101.001
s50.5 -52 85.5 -70s74.833 -27 119.5 -27z" />
    <glyph glyph-name="e" unicode="e" horiz-adv-x="899" 
d="M483 0c-126.667 0 -226.167 42.3301 -298.5 126.997s-107.833 190.334 -106.5 317.001c0.666992 47.333 6.5 93.333 17.5 138s28.333 87 52 127s52.667 74.833 87 104.5s76.333 53.334 126 71.001s104.167 26.5 163.5 26.5c104 0 181.167 -30.667 231.5 -92
s74.833 -142.666 73.5 -243.999h-645c-2.66699 -24 -4 -41.667 -4 -53c-2 -22.667 -2 -45 0 -67c4 -52 14.333 -101.167 31 -147.5s39.167 -88.166 67.5 -125.499s64.666 -66.833 108.999 -88.5s93.5 -32.5 147.5 -32.5s106.833 11.167 158.5 33.5
s96.834 55.166 135.501 98.499h5c-76 -128.667 -193 -193 -351 -193zM508 892.997c-84.667 0 -155.667 -27.9971 -213 -83.9971s-93 -127 -107 -213h297c22 0 39.667 0.333008 53 1s30.5 2.16699 51.5 4.5s37.833 6.16602 50.5 11.499s25.5 12.666 38.5 21.999
s22.667 21.5 29 36.5s9.5 32.833 9.5 53.5c0 49.333 -20.5 89.666 -61.5 120.999s-90.167 47 -147.5 47z" />
    <glyph glyph-name="f" unicode="f" horiz-adv-x="555" 
d="M131 883l-129 -0.000976562v4l129 47v72c0 58.667 5.33301 112.167 16 160.5s27.334 92.166 50.001 131.499s53.667 70 93 92s85.333 33 138 33c69.333 0 124.666 -9.33301 165.999 -28l-47 -178l-4 2l-54 182c-95.333 2 -163.5 -28 -204.5 -90
s-61.5 -156.333 -61.5 -283v-125h283v-20h-283v-758c0 -27.333 3.5 -48.333 10.5 -63s19.167 -30 36.5 -46v-4h-188v4c17.333 16.667 29.833 32.334 37.5 47.001s11.5 35.334 11.5 62.001v758z" />
    <glyph glyph-name="g" unicode="g" horiz-adv-x="935" 
d="M49 -215l218.999 206.994c-131.333 23.333 -196 72.333 -194 147c0 64.667 47.667 114.667 143 150c-98 56.667 -147 142 -147 256c0 56.667 12.333 108.667 37 156s57.5 86 98.5 116s86.833 53.167 137.5 69.5s103 24.5 157 24.5c20.667 0 46.667 -2.33301 78 -7
s52.333 -7 63 -7c95.333 0 143.666 65 144.999 195h5l116 -86c-15.333 -38.667 -43.666 -68.667 -84.999 -90s-86.666 -34.333 -135.999 -39c56 -24 100.667 -59.167 134 -105.5s50 -102.166 50 -167.499c0 -74.667 -20.667 -141 -62 -199s-94.333 -101.5 -159 -130.5
s-134.334 -43.5 -209.001 -43.5c-77.333 0 -146.333 16 -207 48c-48.667 -19.333 -73 -49.666 -73 -90.999c0 -10.667 1.83301 -20.5 5.5 -29.5s9.83398 -16.833 18.501 -23.5s17.834 -12.667 27.501 -18s22.334 -9.83301 38.001 -13.5s30.334 -6.83398 44.001 -9.50098
s31 -5.16699 52 -7.5s39 -4.16602 54 -5.49902s34.667 -3.16602 59 -5.49902s44.166 -4.16602 59.499 -5.49902c34.667 -3.33301 65.167 -6.66602 91.5 -9.99902s54.5 -8 84.5 -14s55.667 -13.667 77 -23s41.166 -20.333 59.499 -33s32.5 -28.167 42.5 -46.5
s15.333 -39.166 16 -62.499c2.66699 -60 -18.5 -112.5 -63.5 -157.5s-101.167 -77.833 -168.5 -98.5s-139 -31 -215 -31c-100.667 0 -189.334 17.5 -266.001 52.5s-119 81.167 -127 138.5zM464.999 882.994c-90.667 0 -162.168 -26.168 -214.501 -78.501
s-78.5 -119.166 -78.5 -200.499c0 -94 26.333 -174.5 79 -241.5s127.334 -100.5 224.001 -100.5c90.667 0 162.5 27.167 215.5 81.5s79.5 122.833 79.5 205.5c0 92 -27 170.667 -81 236s-128.667 98 -224 98zM169.998 -205.007
c-0.666992 -38 14.1689 -70.832 44.502 -98.499s67.833 -47.834 112.5 -60.501s92.667 -19 144 -19c53.333 0 104.666 7.66699 153.999 23s90.666 38.833 123.999 70.5s48.666 67.5 45.999 107.5c-0.666992 18 -5 34.167 -13 48.5s-19.5 26.333 -34.5 36
s-31 18.167 -48 25.5s-38.5 13.5 -64.5 18.5s-50.167 8.83301 -72.5 11.5s-49.5 5.66699 -81.5 9c-95.333 8.66699 -158.666 15.667 -189.999 21c-37.333 -35.333 -66.833 -68 -88.5 -98s-32.5 -61.667 -32.5 -95z" />
    <glyph glyph-name="h" unicode="h" horiz-adv-x="931" 
d="M209 1423l4.00098 -0.00195312l-2 -624c51.333 27.333 110.166 52.833 176.499 76.5s126.833 35.5 181.5 35.5c84.667 0 148.5 -22.333 191.5 -67s64.5 -110.334 64.5 -197.001v-522c0 -27.333 3.5 -48.333 10.5 -63s19.167 -30 36.5 -46v-4h-186v4
c16.667 16 28.334 31.167 35.001 45.5s10 35.5 10 63.5v512c0 78 -19.5 134 -58.5 168s-97.833 51 -176.5 51c-88.667 0 -183.667 -26.667 -285 -80l-2 -651c0 -27.333 3.66699 -48.333 11 -63s20 -30 38 -46v-4h-188v4c17.333 16.667 29.833 32.334 37.5 47.001
s11.5 35.334 11.5 62.001l2 1094c0 60 -20.667 100.667 -62 122v5c23.333 2.66699 50.666 12.334 81.999 29.001s54 32.667 68 48z" />
    <glyph glyph-name="i" unicode="i" horiz-adv-x="344" 
d="M223 911l4.00098 -0.00292969l-2 -786c0 -27.333 3.5 -48.333 10.5 -63s19.167 -30 36.5 -46v-4h-188v4c17.333 16.667 29.833 32.334 37.5 47.001s11.5 35.334 11.5 62.001v582c0 60.667 -20.333 101.334 -61 122.001v5c23.333 4 50.666 14.167 81.999 30.5
s54.333 31.833 69 46.5zM94.001 1108c0 20.667 7.5 38.5 22.5 53.5s32.833 22.5 53.5 22.5s38.5 -7.5 53.5 -22.5s22.5 -32.833 22.5 -53.5c0 -21.333 -7.5 -39.333 -22.5 -54s-32.833 -22 -53.5 -22s-38.5 7.33301 -53.5 22s-22.5 32.667 -22.5 54z" />
    <glyph glyph-name="j" unicode="j" horiz-adv-x="329" 
d="M197 -41c0 -42 -2.33496 -79.668 -7.00195 -113.001s-13.167 -67.166 -25.5 -101.499s-31.166 -64.333 -56.499 -90s-56.666 -45.834 -93.999 -60.501v9c36 32 60 75.333 72 130s18 124 18 208v766c0 60.667 -20.333 101.334 -61 122.001v5c23.333 4 51 14.333 83 31
s55 32 69 46h4zM142.998 1032c-20.667 0 -38.334 7.33301 -53.001 22s-22 32.667 -22 54c0 20.667 7.33301 38.5 22 53.5s32.334 22.5 53.001 22.5c21.333 0 39.333 -7.5 54 -22.5s22 -32.833 22 -53.5c0 -21.333 -7.33301 -39.333 -22 -54s-32.667 -22 -54 -22z" />
    <glyph glyph-name="k" unicode="k" horiz-adv-x="849" 
d="M59 1339l0.000976562 6.99707c23.333 2.66699 50.666 12.334 81.999 29.001s54 32.667 68 48h4l-2 -1046l326 338c53.333 60.667 76.333 120 69 178v4h164v-4c-28.667 -26 -60 -54.167 -94 -84.5s-61 -54.5 -81 -72.5s-35.333 -32.667 -46 -44l-109 -112l367 -564v-4
h-166v4c10 35.333 4 69 -18 101l-250 391l-162 -166v-217c0 -27.333 3.5 -48.333 10.5 -63s19.167 -30 36.5 -46v-4h-186v4c17.333 16.667 29.833 32.334 37.5 47.001s11.5 35.334 11.5 62.001v1094c0 60.667 -20.667 100.667 -62 120z" />
    <glyph glyph-name="l" unicode="l" horiz-adv-x="335" 
d="M70 1341l-0.000976562 4.99707c23.333 2.66699 50.333 12.334 81 29.001s53.334 32.667 68.001 48h4l-2 -1298c0 -27.333 3.5 -48.333 10.5 -63s19.167 -30 36.5 -46v-4h-186v4c17.333 16.667 29.833 32.334 37.5 47.001s11.5 35.334 11.5 62.001v1094
c0 62 -20.333 102.667 -61 122z" />
    <glyph glyph-name="m" unicode="m" horiz-adv-x="1519" 
d="M131 707c0 60.667 -20.333 101.331 -61 121.998v5c22.667 2.66699 49.334 12.334 80.001 29.001s53.667 32.667 69 48h4v-100c133.333 66.667 244.666 100 333.999 100c114 0 189 -38.667 225 -116c150.667 77.333 273 116 367 116c172 0 258 -88 258 -264v-522
c0 -27.333 3.5 -48.333 10.5 -63s19.167 -30 36.5 -46v-4h-184v4c17.333 16 29.5 31.333 36.5 46s10.5 35.667 10.5 63v512c0 77.333 -20.167 133.166 -60.5 167.499s-99.5 51.5 -177.5 51.5c-46 0 -95.333 -8 -148 -24s-99.334 -35.333 -140.001 -58
c14.667 -36.667 22 -79 22 -127v-522c0 -27.333 3.5 -48.333 10.5 -63s19.167 -30 36.5 -46v-4h-186v4c16.667 16 28.334 31.167 35.001 45.5s10 35.5 10 63.5v512c0 78 -19.667 134 -59 168s-98.333 51 -177 51c-80 0 -166.667 -22.667 -260 -68l-2 -663
c0 -27.333 3.5 -48.333 10.5 -63s19.167 -30 36.5 -46v-4h-186v4c17.333 16.667 29.833 32.334 37.5 47.001s11.5 35.334 11.5 62.001v582z" />
    <glyph glyph-name="n" unicode="n" horiz-adv-x="948" 
d="M219 911l3.99707 -0.00292969v-112c51.333 27.333 110.333 52.833 177 76.5s127.334 35.5 182.001 35.5c84.667 0 148.5 -22.333 191.5 -67s64.5 -110.334 64.5 -197.001v-522c0 -27.333 3.5 -48.333 10.5 -63s19.167 -30 36.5 -46v-4h-187v4
c16.667 16 28.334 31.167 35.001 45.5s10 35.5 10 63.5v512c0 78 -19.5 134 -58.5 168s-97.833 51 -176.5 51c-88.667 0 -183.667 -26.667 -285 -80l-2 -651c0 -27.333 3.5 -48.333 10.5 -63s19.167 -30 36.5 -46v-4h-186v4c17.333 16.667 29.833 32.334 37.5 47.001
s11.5 35.334 11.5 62.001v582c0 60.667 -20.333 101.334 -61 122.001v5c22.667 2.66699 49.334 12.334 80.001 29.001s53.667 32.667 69 48z" />
    <glyph glyph-name="o" unicode="o" horiz-adv-x="976" 
d="M78 430c0 72.667 11.8311 139.499 35.498 200.499s55.667 111.833 96 152.5s87 72.167 140 94.5s109.167 33.5 168.5 33.5c116 0 208.5 -36.667 277.5 -110s103.5 -178.666 103.5 -315.999c0 -71.333 -12 -137.666 -36 -198.999s-56.167 -112.833 -96.5 -154.5
s-87.166 -74.334 -140.499 -98.001s-109 -35.5 -167 -35.5c-115.333 0 -207.666 38 -276.999 114s-104 182 -104 318zM181.998 499.999c0 -44.667 2.50391 -87.4971 7.50391 -128.497s14.667 -82.833 29 -125.5s32.666 -79.5 54.999 -110.5s52.166 -56.5 89.499 -76.5
s80.333 -30 129 -30c44 0 83.5 7.16699 118.5 21.5s64 33.666 87 57.999s42.167 53.5 57.5 87.5s26.166 69.667 32.499 107s9.5 77 9.5 119c0 44 -2.83301 86.167 -8.5 126.5s-15.834 81.333 -30.501 123s-33.5 77.667 -56.5 108s-53.333 55.166 -91 74.499
s-80.834 29 -129.501 29c-54 0 -101 -10.333 -141 -31s-71.167 -49.334 -93.5 -86.001s-38.666 -77 -48.999 -121s-15.5 -92.333 -15.5 -145z" />
    <glyph glyph-name="p" unicode="p" horiz-adv-x="950" 
d="M70 829l0.000976562 4.99707c22.667 2.66699 50.834 12.334 84.501 29.001s58.5 32.667 74.5 48h2l2 -125c21.333 18.667 38.666 32.834 51.999 42.501s32.833 22.167 58.5 37.5s53.667 26.666 84 33.999s63.166 11 98.499 11c108.667 0 193.5 -40.667 254.5 -122
s91.5 -190 91.5 -326c0 -62 -7.83301 -119.833 -23.5 -173.5s-39.667 -102.5 -72 -146.5s-76.333 -78.833 -132 -104.5s-120.167 -38.5 -193.5 -38.5c-96.667 0 -170 24 -220 72v-367c0 -27.333 3.5 -48 10.5 -62s19.5 -29.333 37.5 -46v-5h-187v5
c18 16.667 30.667 32.334 38 47.001s11 35.667 11 63v1000c0 66.667 -23.667 107.334 -71 122.001zM231.001 757.997l0.00195312 -593.998c10.667 -34.667 28.5 -63.334 53.5 -86.001s51.5 -38 79.5 -46s58.333 -12 91 -12c98.667 0 175.167 37.667 229.5 113
s81.5 175.666 81.5 300.999c0 40.667 -2.83301 80.167 -8.5 118.5s-15.834 77 -30.501 116s-33 73 -55 102s-50.5 52.5 -85.5 70.5s-74.833 27 -119.5 27c-78.667 0 -157.334 -36.667 -236.001 -110z" />
    <glyph glyph-name="q" unicode="q" horiz-adv-x="921" 
d="M510 911c88.667 0 159.001 -19.6689 211.001 -59.002l90 59h2v-1204c0 -27.333 3.5 -48.166 10.5 -62.499s19.167 -29.5 36.5 -45.5v-5h-188v5c17.333 16 29.5 31.333 36.5 46s10.5 35.334 10.5 62.001l2 412c-33.333 -36 -74.5 -64.833 -123.5 -86.5
s-102.833 -32.5 -161.5 -32.5c-111.333 -0 -198.5 40.833 -261.5 122.5s-94.5 190.5 -94.5 326.5c0 64 8.33301 123.167 25 177.5s41.667 103 75 146s78.166 76.833 134.499 101.5s121.5 37 195.5 37zM186.001 476.998c0 -40.667 2.83496 -80.166 8.50195 -118.499
s15.834 -76.833 30.501 -115.5s33 -72.334 55 -101.001s50.5 -52 85.5 -70s74.833 -27 119.5 -27c43.333 0 86.166 9.5 128.499 28.5s78.166 43.5 107.499 73.5v601c-8 26.667 -19.833 49.667 -35.5 69s-34 34.166 -55 44.499s-42.333 17.833 -64 22.5s-44.5 7 -68.5 7
c-98.667 0 -175.334 -37.667 -230.001 -113s-82 -175.666 -82 -300.999z" />
    <glyph glyph-name="r" unicode="r" horiz-adv-x="651" 
d="M221 911l3.99805 -0.00292969v-155c76.667 103.333 174.334 155 293.001 155c30.667 0 56.667 -7.33301 78 -22l-31 -139h-4c-46.667 56 -98.334 84 -155.001 84c-68 -4 -128.333 -41 -181 -111l-2 -598c0 -27.333 3.5 -48.333 10.5 -63s19.167 -30 36.5 -46v-4h-188v4
c17.333 16.667 29.833 32.334 37.5 47.001s11.5 35.334 11.5 62.001v582c0 60.667 -20.333 101.334 -61 122.001v5c22.667 2.66699 49.834 12.5 81.501 29.5s54.834 32.833 69.501 47.5z" />
    <glyph glyph-name="s" unicode="s" horiz-adv-x="765" 
d="M80 61l0.00292969 230.003h4c12.667 -38.667 26.667 -72.834 42 -102.501s35 -58 59 -85s53.5 -47.667 88.5 -62s74.833 -21.5 119.5 -21.5c53.333 0 99.5 13.333 138.5 40s58.5 65.334 58.5 116.001c0 44.667 -16.667 82 -50 112s-81 59.667 -143 89
c-11.333 5.33301 -29.166 13.833 -53.499 25.5s-42.833 20.5 -55.5 26.5s-29.334 14.833 -50.001 26.5s-36.834 21.667 -48.501 30s-24.834 19.166 -39.501 32.499s-25.834 26.5 -33.501 39.5s-14.5 27.833 -20.5 44.5s-9.33301 34.334 -10 53.001c-2 60 20 114 66 162
c29.333 30 64.666 53.167 105.999 69.5s84.333 24.5 129 24.5c56 0 104.5 -5 145.5 -15s83.167 -28.667 126.5 -56l-20 -166h-4c-53.333 143.333 -143.333 215 -270 215c-49.333 0 -94.5 -14.333 -135.5 -43s-61.5 -66.334 -61.5 -113.001c0 -20 3 -38.833 9 -56.5
s12.667 -33 20 -46s19.166 -26.5 35.499 -40.5s29.833 -25 40.5 -33s28 -18 52 -30s41.333 -20.333 52 -25s29.667 -13 57 -25c40 -17.333 71.833 -32.333 95.5 -45s48.834 -28.834 75.501 -48.501s46.5 -41.834 59.5 -66.501s20.167 -52.667 21.5 -84
c2 -31.333 -4.66699 -61.833 -20 -91.5s-35.333 -54.167 -60 -73.5c-59.333 -45.333 -131.666 -68 -216.999 -68c-113.333 -0 -216.333 20.333 -309 61z" />
    <glyph glyph-name="t" unicode="t" horiz-adv-x="563" 
d="M35 877v20c32.667 8 69.334 33.833 110.001 77.5s70 87.5 88 131.5h21v-209h256v-20h-256v-664c0 -58 10.667 -97.5 32 -118.5s51.666 -31.5 90.999 -31.5c57.333 0 112.666 22.667 165.999 68l2 -2c-59.333 -86 -136 -129 -230 -129
c-45.333 0 -82.166 14.667 -110.499 44s-42.5 72 -42.5 128v705h-127z" />
    <glyph glyph-name="u" unicode="u" 
d="M209 911h3.99707v-637c0 -150 78.667 -223 236 -219c71.333 3.33301 151 31.333 239 84v568c0 60 -20.333 100.667 -61 122v5c22.667 2.66699 49.834 12.5 81.501 29.5s54.834 32.833 69.501 47.5h2v-778c0 -38 21.333 -70 64 -96v-4l-146 -33l-10 84v29
c-127.333 -75.333 -231.666 -113 -312.999 -113c-169.333 0 -254 88 -254 264v443c0 60 -20.667 100.667 -62 122v5c22.667 2.66699 49.667 12.5 81 29.5s54.333 32.833 69 47.5z" />
    <glyph glyph-name="v" unicode="v" horiz-adv-x="942" 
d="M127 786c-16 37.333 -38.667 73.002 -68 107.002v4h172v-4c-11.333 -28.667 -16.666 -49.334 -15.999 -62.001s5.33398 -30.334 14.001 -53.001l285 -667l205 505c10.667 26.667 19.667 54.834 27 84.501s11.166 63 11.499 100s-5.83398 67.833 -18.501 92.5v4h146v-4
c-24 -34.667 -55.333 -92.334 -94 -173.001s-62.667 -133.667 -72 -159l-223 -549h-39z" />
    <glyph glyph-name="w" unicode="w" horiz-adv-x="1376" 
d="M57 897l171.996 0.000976562v-4c-11.333 -28.667 -16.666 -49.334 -15.999 -62.001s5.33398 -30.334 14.001 -53.001l275 -659l172 483l-70 184c-16 39.333 -39 75 -69 107v4h174v-4c-8.66699 -15.333 -13.834 -30.333 -15.501 -45s-1.5 -25.834 0.5 -33.501
s5.66699 -19.834 11 -36.501l245 -661l201 499c8 20 15 40.667 21 62s11.333 45 16 71s5.83398 51.833 3.50098 77.5s-8.16602 47.834 -17.499 66.501v4h143v-4c-23.333 -35.333 -54.666 -93.666 -93.999 -174.999s-63.333 -133.666 -72 -156.999l-223 -549h-37l-207 561
l-197 -561h-38l-324 774c-16 37.333 -38.667 73 -68 107v4z" />
    <glyph glyph-name="x" unicode="x" horiz-adv-x="833" 
d="M59 897h178.998v-4c-5.33301 -13.333 -7.33301 -26.666 -6 -39.999s3.33301 -23.666 6 -30.999s5.33398 -13 8.00098 -17l219 -330c45.333 68 88.666 144 129.999 228s60.666 147.333 57.999 190v4h121v-4l-299 -434l234 -355c24.667 -36.667 50.334 -66 77.001 -88v-4
h-178v4c10 27.333 7.33301 56.666 -8 87.999l-203 304c-130 -189.333 -192.667 -320 -188 -392v-4h-123v4l301 410l-252 379c-12 17.333 -20.667 29.666 -26 36.999s-12.166 15.5 -20.499 24.5s-18.166 17.833 -29.499 26.5v4z" />
    <glyph glyph-name="y" unicode="y" horiz-adv-x="942" 
d="M59 897l172 0.00195312v-4c-11.333 -28.667 -16.666 -49.334 -15.999 -62.001s5.33398 -30.334 14.001 -53.001l285 -667l205 505c10.667 26.667 19.667 54.834 27 84.501s11.166 63 11.499 100s-5.83398 67.833 -18.501 92.5v4h146v-4
c-24 -34.667 -55.333 -92.334 -94 -173.001s-62.667 -133.667 -72 -159l-227 -561c-87.333 -220 -199.333 -355.333 -336 -406l-90 146l2 4c35.333 -10.667 69.333 -16 102 -16c112 0 214.333 94.667 307 284h-20l-330 774c-16 37.333 -38.667 73 -68 107v4z" />
    <glyph glyph-name="z" unicode="z" horiz-adv-x="749" 
d="M63 12l0.000976562 4l496 861h-215c-19.333 0 -58.333 -12.667 -117 -38s-106.334 -52.333 -143.001 -81h-4l16 139h582v-4l-498 -860h232c22 0 62.5 11.833 121.5 35.5s111.167 52.167 156.5 85.5h4l-26 -142h-605z" />
    <glyph glyph-name="braceleft" unicode="{" horiz-adv-x="475" 
d="M66 678l-0.000976562 10.001c30.667 5.33301 53.667 31.833 69 79.5s23 101.167 23 160.5v231c0 42 0.333008 75.167 1 99.5s2.33398 49.666 5.00098 75.999s6 46.166 10 59.499s10.5 27 19.5 41s18.833 23.667 29.5 29s25.167 10.666 43.5 15.999s37.833 8.5 58.5 9.5
s46.667 1.5 78 1.5v-18c-24.667 0.666992 -45.667 -1 -63 -5s-31.333 -10.333 -42 -19s-19.167 -19.5 -25.5 -32.5s-10.5 -27.833 -12.5 -44.5s-3.33301 -35.167 -4 -55.5s-0.666992 -41.833 0 -64.5v-42v-219v-21c0 -33.333 -0.166992 -57.833 -0.5 -73.5
s-1.83301 -36 -4.5 -61s-7 -43.667 -13 -56s-14.167 -25.833 -24.5 -40.5s-24 -26.167 -41 -34.5s-37.5 -15.166 -61.5 -20.499c16 -1.33301 30.5 -4 43.5 -8s24.167 -8.16699 33.5 -12.5s17.666 -11 24.999 -20s13.5 -16.833 18.5 -23.5s9 -17 12 -31
s5.33301 -24.833 7 -32.5s3 -20.5 4 -38.5s1.5 -31.333 1.5 -40v-44v-18v-289c0 -22 0.166992 -39.333 0.5 -52s1.5 -28.167 3.5 -46.5s4.83301 -32.833 8.5 -43.5s9 -22.167 16 -34.5s15.667 -21.666 26 -27.999s23.333 -11.5 39 -15.5s33.5 -5.66699 53.5 -5v-19
c-33.333 -0.666992 -60.166 -0.166992 -80.499 1.5s-40.833 6 -61.5 13s-36.5 17 -47.5 30s-21.333 31 -31 54s-16.167 51.333 -19.5 85s-5 74.834 -5 123.501v302c0 46 -7.66699 87.167 -23 123.5s-38.333 57.166 -69 62.499z" />
    <glyph glyph-name="bar" unicode="|" horiz-adv-x="419" 
d="M227 -117h-32v1608h32v-1608z" />
    <glyph glyph-name="braceright" unicode="}" horiz-adv-x="464" 
d="M68 1491c40.667 0.666992 72.335 -0.50293 95.002 -3.50293s44.834 -9.83301 66.501 -20.5s37.667 -27.167 48 -49.5s18.5 -52.166 24.5 -89.499s9 -84.666 9 -141.999v-303c0 -46 7.66699 -87.167 23 -123.5s38.333 -56.833 69 -61.5v-10
c-30.667 -6.66699 -53.667 -33.834 -69 -81.501s-23 -101.167 -23 -160.5v-231c0 -41.333 -0.333008 -74.166 -1 -98.499s-2.33398 -49.666 -5.00098 -75.999s-6 -46 -10 -59s-10.333 -26.5 -19 -40.5s-18.334 -23.833 -29.001 -29.5s-25.167 -11 -43.5 -16
s-37.833 -8 -58.5 -9s-46.334 -1.5 -77.001 -1.5v17c24.667 -0.666992 45.667 1.16602 63 5.49902s31.333 10.833 42 19.5s19.167 19.5 25.5 32.5s10.5 27.833 12.5 44.5s3.33301 35 4 55s0.666992 41.333 0 64v41v221v26v54.5c0 11.667 0.5 27.334 1.5 47.001
s2.83301 34.5 5.5 44.5s6.16699 22.333 10.5 37s10 26 17 34s15.5 16.5 25.5 25.5s21.833 16.333 35.5 22s29.5 10.5 47.5 14.5c-18 1.33301 -33.833 3.83301 -47.5 7.5s-25.5 9.5 -35.5 17.5s-18.5 15.333 -25.5 22s-12.667 17.167 -17 31.5s-7.83301 25.5 -10.5 33.5
s-4.5 21.833 -5.5 41.5s-1.5 34 -1.5 43v48.5v23v289c0 22 -0.166992 39.333 -0.5 52s-1.5 28.334 -3.5 47.001s-4.83301 33.167 -8.5 43.5s-9 21.833 -16 34.5s-15.667 22 -26 28s-23.333 11.167 -39 15.5s-33.5 6.16602 -53.5 5.49902v18z" />
    <glyph glyph-name="asciitilde" unicode="~" horiz-adv-x="751" 
d="M242 799c33.333 0 83.832 -14.665 151.499 -43.998s122.834 -44 165.501 -44c44.667 0 71.334 17 80.001 51h2c-1.33301 -51.333 -10.5 -90.5 -27.5 -117.5s-49.5 -40.5 -97.5 -40.5c-36.667 0 -75.5 7.66699 -116.5 23s-80 30.666 -117 45.999s-68.5 23 -94.5 23
c-38.667 0 -67.334 -19 -86.001 -57h-2v16c0 43.333 13 78.166 39 104.499s60.333 39.5 103 39.5z" />
    <glyph glyph-name="exclamdown" unicode="&#xa1;" horiz-adv-x="409" 
d="M279 0h-113l51 977h10zM223 1346c20.667 0 38.5 -7.5 53.5 -22.5s22.5 -32.833 22.5 -53.5s-7.5 -38.5 -22.5 -53.5s-32.833 -22.5 -53.5 -22.5s-38.5 7.5 -53.5 22.5s-22.5 32.833 -22.5 53.5s7.5 38.5 22.5 53.5s32.833 22.5 53.5 22.5z" />
    <glyph glyph-name="cent" unicode="&#xa2;" horiz-adv-x="894" 
d="M485 0c-83.333 0 -156.164 20.167 -218.497 60.5s-108.833 93.833 -139.5 160.5s-45.667 141 -45 223c0.666992 57.333 9.16699 112 25.5 164s40.166 99.833 71.499 143.5s73.333 79.667 126 108s112.667 44.833 180 49.5v322h33v-320
c99.333 0 186.666 -24.333 261.999 -73l-57 -181l-4 2c-6.66699 68 -27.334 120.5 -62.001 157.5s-81 59.167 -139 66.5v-826c130.667 0 236.667 45.333 318 136h4c-72 -120 -179.333 -184.333 -322 -193v-117h-33v117zM182.002 502
c-2 -121.333 25.999 -223.001 83.999 -305.001c53.333 -77.333 126.333 -122.666 219 -135.999v824c-66 4 -124.667 -16.667 -176 -62c-39.333 -35.333 -70.166 -81 -92.499 -137s-33.833 -117.333 -34.5 -184z" />
    <glyph glyph-name="sterling" unicode="&#xa3;" horiz-adv-x="1030" 
d="M86 659l175.999 0.00390625c-6.66699 14 -20.334 39.833 -41.001 77.5s-35.5 66 -44.5 85s-18.333 44.167 -28 75.5s-14.834 60.666 -15.501 87.999c-2.66699 80 14.833 149 52.5 207s86.334 100.5 146.001 127.5s125.834 40.5 198.501 40.5
c76 0 144.833 -13.167 206.5 -39.5s111.834 -64.5 150.501 -114.5l-135 -239h-4c11.333 41.333 18 88.333 20 141c0.666992 76 -24.166 132.833 -74.499 170.5s-112.833 56.5 -187.5 56.5c-75.333 0 -143 -22.5 -203 -67.5s-90 -104.167 -90 -177.5
c0 -42 6.16699 -84.5 18.5 -127.5s25.5 -78.333 39.5 -106s32.667 -62.334 56 -104.001s40 -72.834 50 -93.501h301v-30h-289c20.667 -47.333 31 -89.666 31 -126.999c0 -41.333 -5 -80.833 -15 -118.5s-24.667 -72 -44 -103s-35.833 -55.333 -49.5 -73
s-32.334 -38.5 -56.001 -62.5s-36.5 -37 -38.5 -39l397 7c62 1.33301 113.833 9.66602 155.5 24.999s85.5 46.333 131.5 93h6l-65 -219h-731v4c56 51.333 105.833 117.166 149.5 197.499s65.5 154.5 65.5 222.5c0 60.667 -16.667 125 -50 193h-190v30z" />
    <glyph glyph-name="currency" unicode="&#xa4;" horiz-adv-x="1208" 
d="M172 264l-16 21.0029l166 153c-90.667 82 -136 184.333 -136 307c0 59.333 11.667 115.5 35 168.5s56 98.833 98 137.5l-163 151l16 21l166 -156c78 64 166.667 96 266 96c100 0 188.667 -32.667 266 -98l168 158l15 -21l-164 -153
c40.667 -38.667 72.667 -84.334 96 -137.001s35 -108.334 35 -167.001c0 -59.333 -11.667 -115.333 -35 -168s-56 -98.334 -98 -137.001l166 -155l-15 -21l-170 160c-78 -64 -166 -96 -264 -96c-99.333 0 -187.333 31.333 -264 94zM211 745.003
c0 -108.667 38.333 -201.334 115 -278.001s169.334 -115 278.001 -115c107.333 0 199.333 38.333 276 115s115 169.334 115 278.001s-38.167 201.167 -114.5 277.5s-168.5 114.5 -276.5 114.5c-108.667 0 -201.334 -38.167 -278.001 -114.5s-115 -168.833 -115 -277.5z" />
    <glyph glyph-name="yen" unicode="&#xa5;" horiz-adv-x="1198" 
d="M59 1341v5.00098h185v-5c-7.33301 -29.333 -9.16602 -54 -5.49902 -74s14.167 -43.667 31.5 -71l402 -633l291 543c52 100.667 61.333 179 28 235v5h150v-5c-38 -40 -91.333 -123.667 -160 -251l-301 -566v-47h221v-33h-221v-186h221v-29h-221v-18
c0 -60 3.33301 -102.5 10 -127.5s21.667 -46.833 45 -65.5v-6h-209v6c24 19.333 39.667 41.666 47 66.999s11 67.333 11 126v18h-217v29h217v186h-217v33h217v45l-430 680c-42.667 68.667 -74.334 115 -95.001 139z" />
    <glyph glyph-name="brokenbar" unicode="&#xa6;" horiz-adv-x="573" 
d="M287 -117l-2 727h30v-727h-28zM315 825h-28v705h28v-705z" />
    <glyph glyph-name="section" unicode="&#xa7;" horiz-adv-x="1003" 
d="M530 -346c-133.333 0 -259.333 29.333 -378 88v287h4c14.667 -58 31.667 -107.5 51 -148.5s43.666 -77 72.999 -108s64.666 -54 105.999 -69s90 -22.5 146 -22.5c86.667 0 159.667 21.667 219 65s89 106 89 188c0 37.333 -6.5 70.833 -19.5 100.5s-32.667 55.667 -59 78
s-52.666 40.833 -78.999 55.5s-59.166 30.334 -98.499 47.001c-16.667 7.33301 -41.167 17.5 -73.5 30.5s-58 23.5 -77 31.5s-42.667 19 -71 33s-51.166 26.667 -68.499 38s-36 25.833 -56 43.5s-35.5 35.334 -46.5 53.001s-20.333 38.334 -28 62.001
s-11.5 48.834 -11.5 75.501c0 96.667 41.333 175.667 124 237c-82.667 56.667 -124 129.667 -124 219c0 62.667 18.833 119 56.5 169s85.5 88 143.5 114s119 39 183 39c78 0 142.167 -6.16699 192.5 -18.5s108.833 -37.5 175.5 -75.5l-41 -197h-4
c-18.667 86 -58.334 151.5 -119.001 196.5s-133 67.5 -217 67.5c-43.333 0 -85.5 -7.83301 -126.5 -23.5s-76.667 -40.834 -107 -75.501s-46.5 -75.334 -48.5 -122.001c-1.33301 -26 1 -50.5 7 -73.5s13.5 -43 22.5 -60s22.833 -33.667 41.5 -50
s35.334 -29.666 50.001 -39.999s35.334 -21.833 62.001 -34.5s48.167 -22.334 64.5 -29.001s40 -16 71 -28s53.833 -21 68.5 -27c64 -27.333 115.667 -53.5 155 -78.5s72.333 -56.167 99 -93.5c34 -48.667 51.167 -102.834 51.5 -162.501s-16.834 -112.834 -51.501 -159.501
c-18.667 -25.333 -40 -48.333 -64 -69c22.667 -16.667 44 -38.667 64 -66c34 -48.667 51.167 -102.667 51.5 -162s-16.834 -112.333 -51.501 -159c-82 -110.667 -199 -166 -351 -166zM229 662c-0.666992 -20.667 0.831055 -40.5039 4.49805 -59.5039s8.5 -36.167 14.5 -51.5
s15.333 -30.5 28 -45.5s24.167 -27.833 34.5 -38.5s25 -22 44 -34s34.833 -21.667 47.5 -29s30.834 -16.166 54.501 -26.499s41.667 -18.166 54 -23.499s31.5 -13 57.5 -23s44.333 -17.333 55 -22c83.333 -35.333 140 -63.333 170 -84c36.667 45.333 55 98 55 158
c0 37.333 -7 71.5 -21 102.5s-34.167 58.333 -60.5 82s-53.666 43.834 -81.999 60.501s-61.833 33.334 -100.5 50.001c-19.333 8.66699 -49.833 21.167 -91.5 37.5s-78.5 31.5 -110.5 45.5s-60.333 28.667 -85 44c-42 -42 -64.667 -89.667 -68 -143z" />
    <glyph glyph-name="dieresis" unicode="&#xa8;" horiz-adv-x="704" 
d="M201 1032c-20.667 0 -38.5 7.33301 -53.5 22s-22.5 32.667 -22.5 54c0 20.667 7.5 38.5 22.5 53.5s32.833 22.5 53.5 22.5c21.333 0 39.166 -7.5 53.499 -22.5s21.5 -32.833 21.5 -53.5c0 -21.333 -7.16699 -39.333 -21.5 -54s-32.166 -22 -53.499 -22zM498 1032
c-20.667 0 -38.5 7.33301 -53.5 22s-22.5 32.667 -22.5 54c0 20.667 7.5 38.5 22.5 53.5s32.833 22.5 53.5 22.5c21.333 0 39.166 -7.5 53.499 -22.5s21.5 -32.833 21.5 -53.5c0 -21.333 -7.16699 -39.333 -21.5 -54s-32.166 -22 -53.499 -22z" />
    <glyph glyph-name="copyright" unicode="&#xa9;" horiz-adv-x="1605" 
d="M786 1360c92.667 0 181 -17.833 265 -53.5s156.333 -83.834 217 -144.501s108.834 -133 144.501 -217s53.5 -172.333 53.5 -265s-17.833 -181 -53.5 -265s-83.834 -156.333 -144.501 -217s-133 -108.834 -217 -144.501s-172.333 -53.5 -265 -53.5s-181 17.833 -265 53.5
s-156.333 83.834 -217 144.501s-108.834 133 -144.501 217s-53.5 172.333 -53.5 265s17.833 181 53.5 265s83.834 156.333 144.501 217s133 108.834 217 144.501s172.333 53.5 265 53.5zM786 25c118.667 0 228.334 29.165 329.001 87.498s180.334 137.833 239.001 238.5
s88 210.334 88 329.001s-29.333 228.334 -88 329.001s-138.334 180.167 -239.001 238.5s-210.334 87.5 -329.001 87.5c-88.667 0 -173.5 -17.333 -254.5 -52s-150.667 -81.167 -209 -139.5s-104.833 -128 -139.5 -209s-52 -165.833 -52 -254.5s17.333 -173.5 52 -254.5
s81.167 -150.667 139.5 -209s128 -104.833 209 -139.5s165.833 -52 254.5 -52zM348 689.998c0 79.333 13.9961 150.834 41.9961 214.501s65.333 114.667 112 153s98.834 67.666 156.501 87.999s118.167 30.5 181.5 30.5c103.333 0 202.333 -29.667 297 -89l-74 -200h-4
c3.33301 50 -1.16699 93 -13.5 129s-30.666 63.5 -54.999 82.5s-50 32.667 -77 41s-56.5 12.833 -88.5 13.5c-35.333 0 -70.333 -4.5 -105 -13.5s-69 -24.167 -103 -45.5s-64 -47.5 -90 -78.5s-47 -70.5 -63 -118.5s-24 -101.333 -24 -160
c0 -60.667 8.83301 -119.167 26.5 -175.5s42.834 -107 75.501 -152s75 -81.167 127 -108.5s109.667 -41 173 -41c134.667 0 245.334 63.667 332.001 191l4 -2c-18.667 -32.667 -38.667 -61.5 -60 -86.5s-47 -49.167 -77 -72.5s-65.167 -41.5 -105.5 -54.5
s-84.5 -19.833 -132.5 -20.5c-83.333 0 -159 18.167 -227 54.5s-123 91 -165 164s-63 158.5 -63 256.5z" />
    <glyph glyph-name="ordfeminine" unicode="&#xaa;" horiz-adv-x="612" 
d="M68 928c0 41.333 13 73.667 39 97s63.333 42 112 56c46 14 111 27 195 39v80c0 40.667 -10.667 73.834 -32 99.501s-51.666 38.167 -90.999 37.5c-38 -0.666992 -71.833 -12.834 -101.5 -36.501s-49.834 -51.5 -60.501 -83.5h-4l-21 90c45.333 28.667 107 43 185 43
c120 0 180 -54.667 180 -164v-307c0 -30 16.333 -45 49 -45c14.667 0 26.334 2.66699 35.001 8l2 -2c-6.66699 -8.66699 -18 -17 -34 -25s-32 -12 -48 -12c-18.667 0 -32.834 6.16699 -42.501 18.5s-15.167 25.833 -16.5 40.5c-60.667 -39.333 -129 -59 -205 -59
c-42 0 -76 10.5 -102 31.5s-39 52.167 -39 93.5zM240 1063c-72.667 -26.667 -108.999 -68.333 -108.999 -125c0 -37.333 11 -65.833 33 -85.5s52 -29.5 90 -29.5c49.333 0 102.666 17 159.999 51v236c-56 -10 -114 -25.667 -174 -47z" />
    <glyph glyph-name="guillemotleft" unicode="&#xab;" horiz-adv-x="1017" 
d="M418 496l487 331l15 -24l-369 -324l369 -358l-15 -25l-487 371v29zM88 496l487 331l15 -24l-369 -324l369 -358l-15 -25l-487 371v29z" />
    <glyph glyph-name="logicalnot" unicode="&#xac;" horiz-adv-x="1040" 
d="M860 520h-725v31h756v-256h-31v225z" />
    <glyph glyph-name="registered" unicode="&#xae;" horiz-adv-x="905" 
d="M123 1143c0 91.333 32.333 169.166 97 233.499s143 96.5 235 96.5c90.667 0 168.167 -32.167 232.5 -96.5s96.5 -142.166 96.5 -233.499c0 -92 -32 -170.333 -96 -235s-141.667 -97 -233 -97c-92 0 -170.333 32.333 -235 97s-97 143 -97 235zM147 1143
c0 -84.667 30 -157 90 -217s132.667 -90 218 -90c84.667 0 156.667 29.833 216 89.5s89 132.167 89 217.5c0 84.667 -29.667 156.667 -89 216s-131.333 89 -216 89c-85.333 0 -158 -29.667 -218 -89s-90 -131.333 -90 -216zM295 930l0.000976562 4
c8.66699 6.66699 14.167 14.334 16.5 23.001s3.5 23.334 3.5 44.001v308c0 19.333 -1.16699 33.166 -3.5 41.499s-7.83301 15.5 -16.5 21.5v2h160c47.333 0 87.5 -11.333 120.5 -34s49.5 -56.334 49.5 -101.001c0 -68.667 -35 -109.667 -105 -123l123 -182v-4l-104 2v2
c5.33301 12.667 5.33301 23 0 31l-101 143h-55v-109c0 -18 2.16699 -31.333 6.5 -40s11.166 -17 20.499 -25v-4h-115zM383.001 1128h66.001c29.333 0 53.666 8.83301 72.999 26.5s29 44.5 29 80.5c0 79.333 -43 119 -129 119h-39v-226z" />
    <glyph glyph-name="macron" unicode="&#xaf;" horiz-adv-x="747" 
d="M98 1315v31h555v-31h-555z" />
    <glyph glyph-name="degree" unicode="&#xb0;" horiz-adv-x="860" 
d="M432 1350c92 0 170.667 -32.667 236 -98s98 -144 98 -236c0 -92.667 -32.667 -171.5 -98 -236.5s-144 -97.5 -236 -97.5s-170.667 32.5 -236 97.5s-98 143.833 -98 236.5c0 92 32.667 170.667 98 236s144 98 236 98zM129 1016c0 -84 29.5 -155.5 88.5 -214.5
s130.5 -88.5 214.5 -88.5s155.5 29.5 214.5 88.5s88.5 130.5 88.5 214.5c0 83.333 -29.5 154.333 -88.5 213s-130.5 88 -214.5 88s-155.5 -29.333 -214.5 -88s-88.5 -129.667 -88.5 -213z" />
    <glyph glyph-name="plusminus" unicode="&#xb1;" horiz-adv-x="684" 
d="M145 684h187v211h30v-211h185v-31h-185v-215h-30v215h-187v31zM147 334h400v-31h-400v31z" />
    <glyph glyph-name="twosuperior" unicode="&#xb2;" horiz-adv-x="634" 
d="M111 651l-0.000976562 34.9941l54 54c28.667 28.667 50.5 50.834 65.5 66.501s36 38.334 63 68.001s48.167 55.834 63.5 78.501s31.5 48.334 48.5 77.001s29.5 56.667 37.5 84s12 54 12 80c0 44 -11 79.833 -33 107.5s-52.667 41.5 -92 41.5
c-43.333 0 -82.833 -12.333 -118.5 -37s-59.834 -64.667 -72.501 -120l-24 96c32.667 27.333 65.334 46.833 98.001 58.5s71 17.5 115 17.5c68 0 120.167 -15 156.5 -45s54.5 -72.333 54.5 -127c0 -77.333 -59.667 -175.666 -179 -294.999
c-30 -29.333 -68.167 -64.166 -114.5 -104.499s-74.166 -64.833 -83.499 -73.5h248c9.33301 0 20 1.33301 32 4s28 9.5 48 20.5s38.333 25.833 55 44.5h2l-33 -131h-403z" />
    <glyph glyph-name="threesuperior" unicode="&#xb3;" horiz-adv-x="606" 
d="M82 715l14.001 115.996h2c8 -59.333 32.167 -103.666 72.5 -132.999s83.833 -43 130.5 -41c50.667 1.33301 93.334 17.333 128.001 48s52 75.667 52 135c0 46.667 -19.833 86.334 -59.5 119.001s-90.834 49 -153.501 49h-61v12h59c43.333 0 84.333 17 123 51
s57.667 75 57 123c-0.666992 47.333 -14.167 84.5 -40.5 111.5s-61.833 41.167 -106.5 42.5c-94.667 0 -153.334 -52.667 -176.001 -158h-2l-23 98c51.333 48 123.666 72 216.999 72c52.667 0 96.667 -14.5 132 -43.5s53 -69.167 53 -120.5
c0 -45.333 -15.333 -82.833 -46 -112.5s-70 -51.5 -118 -65.5c56 -1.33301 103.833 -17.666 143.5 -48.999s59.5 -74.333 59.5 -129c0 -64 -23.667 -112.833 -71 -146.5s-105 -50.5 -173 -50.5c-40 0 -79.167 6.33301 -117.5 19s-70.166 30.334 -95.499 53.001z" />
    <glyph glyph-name="acute" unicode="&#xb4;" horiz-adv-x="509" 
d="M293 1278l84 -66l-221 -151h-6z" />
    <glyph glyph-name="paragraph" unicode="&#xb6;" horiz-adv-x="1126" 
d="M446 1343l436.998 0.000976562l-2 -1306h190v-25h-690v25h121v534h-41c-57.333 0 -108.666 10.667 -153.999 32s-81.666 50.166 -108.999 86.499s-48 76.833 -62 121.5s-21 91.667 -21 141c0 110 33.333 202.667 100 278s143.667 113 231 113zM857.998 1319h-334l2 -1282
h330z" />
    <glyph glyph-name="periodcentered" unicode="&#xb7;" horiz-adv-x="415" 
d="M137 643c0 21.333 7.33301 39.666 22 54.999s32.667 23 54 23c22.667 0 41.667 -7.66699 57 -23s23 -33.666 23 -54.999s-7.66699 -39.666 -23 -54.999s-34.333 -23 -57 -23c-21.333 0 -39.333 7.66699 -54 23s-22 33.666 -22 54.999z" />
    <glyph glyph-name="cedilla" unicode="&#xb8;" horiz-adv-x="641" 
d="M92 -389l54.999 181.999h5c-10.667 -72 -1.16699 -128.167 28.5 -168.5s65.834 -60.5 108.501 -60.5c42 0 77 10.833 105 32.5s47 46.667 57 75s14.667 58.5 14 90.5c-0.666992 66 -17.167 114.333 -49.5 145s-73.833 46.667 -124.5 48c-42.667 0 -77.667 -11 -105 -33
l-8 6l25 166h41l-31 -133c33.333 9.33301 71 14 113 14c70.667 -0.666992 126.167 -20.667 166.5 -60s60.5 -89.666 60.5 -150.999c0 -74 -23.5 -129.333 -70.5 -166s-105.5 -55 -175.5 -55c-83.333 0 -155 22.667 -215 68z" />
    <glyph glyph-name="onesuperior" unicode="&#xb9;" horiz-adv-x="352" 
d="M211 1346h2.00391v-605c0 -19.333 1.83301 -35.166 5.5 -47.499s6.66699 -19.666 9 -21.999s7.83301 -7.16602 16.5 -14.499v-4h-138v4c8.66699 7.33301 14.167 12.166 16.5 14.499s5.33301 9.66602 9 21.999s5.5 28.166 5.5 47.499v480c0 14 -4.33301 24.667 -13 32
s-25.334 11 -50.001 11v4c4 2 14.167 6.16699 30.5 12.5s27.166 10.833 32.499 13.5s13.666 7 24.999 13s20.666 12 27.999 18s14.333 13 21 21z" />
    <glyph glyph-name="ordmasculine" unicode="&#xba;" horiz-adv-x="657" 
d="M311 651c-38.667 0 -72.666 11 -101.999 33s-51.833 50.5 -67.5 85.5s-27.167 70.5 -34.5 106.5s-11 71.667 -11 107c0 32 2.5 64.333 7.5 97s13.667 66 26 100s27.666 64.167 45.999 90.5s41.833 47.833 70.5 64.5s60.667 25 96 25c38.667 0 72.5 -11.167 101.5 -33.5
s51 -51.333 66 -87s26 -71.5 33 -107.5s10.5 -72 10.5 -108c0 -40.667 -4.16699 -81.5 -12.5 -122.5s-21.333 -80.833 -39 -119.5s-43 -70.167 -76 -94.5s-71.167 -36.5 -114.5 -36.5zM178.001 995c0 -20 0.836914 -41.5 2.50391 -64.5s5.5 -51 11.5 -84
s14 -62.167 24 -87.5s24.5 -47.166 43.5 -65.499s41.167 -27.5 66.5 -27.5c30.667 0 56.5 12.833 77.5 38.5s35.833 58.5 44.5 98.5s14.667 75.167 18 105.5s5 59.166 5 86.499c0 19.333 -0.333008 37.5 -1 54.5s-2.33398 40.5 -5.00098 70.5s-7.33398 56.667 -14.001 80
s-15 46.5 -25 69.5s-23.5 41 -40.5 54s-36.833 19.5 -59.5 19.5s-42.834 -6.5 -60.501 -19.5s-31.5 -31 -41.5 -54s-18.5 -46.333 -25.5 -70s-11.833 -50.5 -14.5 -80.5s-4.33398 -53.5 -5.00098 -70.5s-1 -34.833 -1 -53.5z" />
    <glyph glyph-name="guillemotright" unicode="&#xbb;" horiz-adv-x="1017" 
d="M98 803l15 24l487 -331v-29l-487 -371l-15 25l369 358zM428 803l12 24l490 -331v-29l-490 -371l-12 25l367 358z" />
    <glyph glyph-name="onequarter" unicode="&#xbc;" horiz-adv-x="1376" 
d="M791 215l0.000976562 9.99805l337 480h33v-429l74 7v-72h-74v-111c0 -19.333 1.83301 -35.166 5.5 -47.499s6.66699 -19.666 9 -21.999s7.83301 -7.16602 16.5 -14.499v-4h-139v4c0.666992 0.666992 2.33398 2 5.00098 4s4.16699 3.33301 4.5 4
s1.66602 2.16699 3.99902 4.5s3.66602 4 3.99902 5s1.33301 3 3 6s2.83398 5.66699 3.50098 8s1.5 5.33301 2.5 9s1.66699 7.66699 2 12s0.666016 9.16602 0.999023 14.499s0.5 11 0.5 17v111zM354.001 1346h2.00293v-605c0 -19.333 1.83301 -35.166 5.5 -47.499
s6.66699 -19.666 9 -21.999s7.83301 -7.16602 16.5 -14.499v-4h-137v4c8.66699 7.33301 14.167 12.166 16.5 14.499s5.33301 9.66602 9 21.999s5.5 28.166 5.5 47.499v480c0 14 -4.5 24.667 -13.5 32s-25.833 11 -50.5 11v4c4 2 14.167 6.16699 30.5 12.5
s27.166 10.833 32.499 13.5s13.666 7 24.999 13s20.666 12 27.999 18s14.333 13 21 21zM455.004 11.998h-33l530 1334h31zM831.004 247.998l252 26v332z" />
    <glyph glyph-name="onehalf" unicode="&#xbd;" horiz-adv-x="1406" 
d="M831 47l54.0029 54.0029c29.333 29.333 51.333 51.666 66 66.999s35.667 38.166 63 68.499s48.5 56.666 63.5 78.999s31.167 48 48.5 77s30 57.167 38 84.5s12 54 12 80c0 43.333 -11 79.166 -33 107.499s-52.667 42.5 -92 42.5c-42.667 0 -82 -12.833 -118 -38.5
s-59.667 -66.167 -71 -121.5h-6l-20 96c33.333 28 66.166 47.667 98.499 59s70.5 17 114.5 17c68 0 120.167 -15 156.5 -45s54.5 -71.667 54.5 -125c0 -81.333 -59 -179.666 -177 -294.999c-31.333 -30 -70.333 -65.5 -117 -106.5s-74.334 -65.5 -83.001 -73.5h247
c49.333 0 94.666 23 135.999 69h2l-33 -131h-404v35zM354.003 1346h2.00293v-605c0 -19.333 1.83301 -35.166 5.5 -47.499s6.66699 -19.666 9 -21.999s7.83301 -7.16602 16.5 -14.499v-4h-137v4c8.66699 7.33301 14.167 12.166 16.5 14.499s5.33301 9.66602 9 21.999
s5.5 28.166 5.5 47.499v480c0 14 -4.5 24.667 -13.5 32s-25.833 11 -50.5 11v4c4 2 14.167 6.16699 30.5 12.5s27.166 10.833 32.499 13.5s13.666 7 24.999 13s20.666 12 27.999 18s14.333 13 21 21zM414.006 12.0029h-33l530 1334h31z" />
    <glyph glyph-name="threequarters" unicode="&#xbe;" horiz-adv-x="1458" 
d="M874 225l336.001 479.998h33v-429l74 7v-72h-74v-111c0 -19.333 1.83301 -35.166 5.5 -47.499s6.66699 -19.666 9 -21.999s7.83301 -7.16602 16.5 -14.499v-4h-139v4c0.666992 0.666992 2.33398 2 5.00098 4s4.16699 3.33301 4.5 4s1.66602 2.16699 3.99902 4.5
s3.66602 4 3.99902 5s1.33301 3 3 6s2.83398 5.66699 3.50098 8s1.5 5.33301 2.5 9s1.66699 7.66699 2 12s0.666016 9.16602 0.999023 14.499s0.5 11 0.5 17v111l-291 4v10zM217.001 714.998l14.002 115.996h2c8 -59.333 32.167 -103.666 72.5 -132.999
s83.833 -43 130.5 -41c50.667 1.33301 93.334 17.333 128.001 48s52 75.667 52 135c0 46.667 -19.833 86.334 -59.5 119.001s-90.834 49 -153.501 49h-61v12h59c43.333 0 84.5 17 123.5 51s58.167 75 57.5 123c-0.666992 47.333 -14.334 84.5 -41.001 111.5
s-62.334 41.167 -107.001 42.5c-94.667 0 -153.334 -52.667 -176.001 -158h-2l-23 98c51.333 48 124 72 218 72c52 0 95.667 -14.5 131 -43.5s53 -69.167 53 -120.5c0 -45.333 -15.333 -82.833 -46 -112.5s-70 -51.5 -118 -65.5c56 -1.33301 103.833 -17.666 143.5 -48.999
s59.5 -74.333 59.5 -129c0 -64 -23.667 -112.833 -71 -146.5s-105 -50.5 -173 -50.5c-40 0 -79.167 6.33301 -117.5 19s-70.166 30.334 -95.499 53.001zM1085 1345.99l-528 -1334h-33l531 1334h30zM1165 605.994l-252 -358l252 26v332z" />
    <glyph glyph-name="questiondown" unicode="&#xbf;" horiz-adv-x="966" 
d="M102 328c2 54 16.833 105.501 44.5 154.501s61 90.333 100 124s82.667 64.334 131 92.001s91.333 48.667 129 63s72.167 25.5 103.5 33.5v196h13l41 -198c-119.333 -38.667 -226.333 -109.334 -321 -212.001s-142 -202 -142 -298
c0 -77.333 27.167 -140.666 81.5 -189.999s132.833 -72 235.5 -68c66.667 2.66699 122.667 22.167 168 58.5s76.333 81.5 93 135.5s20.667 111.333 12 172h2l84 -248c-37.333 -44 -92.833 -78.833 -166.5 -104.5s-147.5 -38.5 -221.5 -38.5c-52 0 -101 6.5 -147 19.5
s-87.5 32.167 -124.5 57.5s-66 59.666 -87 102.999s-30.5 92.666 -28.5 147.999zM592 1206c-20.667 0 -38.5 7.5 -53.5 22.5s-22.5 32.833 -22.5 53.5s7.5 38.5 22.5 53.5s32.833 22.5 53.5 22.5c21.333 0 39.333 -7.5 54 -22.5s22 -32.833 22 -53.5
s-7.33301 -38.5 -22 -53.5s-32.667 -22.5 -54 -22.5z" />
    <glyph glyph-name="Agrave" unicode="&#xc0;" horiz-adv-x="1122" 
d="M205 12l-157.999 0.00390625v4c20 24.667 35.833 49.167 47.5 73.5s27.167 63.5 46.5 117.5l375 1026c4 10 2.5 25.667 -4.5 47s-17.167 41.666 -30.5 60.999v5h111l405 -1190c17.333 -56.667 42.666 -103.334 75.999 -140.001v-4h-188v4c24 39.333 24 94.666 0 165.999
l-105 312h-508l-104 -287c-12.667 -38.667 -15.5 -74.834 -8.5 -108.501s22.167 -61.167 45.5 -82.5v-4zM537.001 1221l-256 -703h491zM600.001 1425l-221 152l82 65l145 -217h-6z" />
    <glyph glyph-name="Aacute" unicode="&#xc1;" horiz-adv-x="1122" 
d="M47 12l0.000976562 4.00391c20 24.667 35.833 49.167 47.5 73.5s27.167 63.5 46.5 117.5l375 1026c4 10 2.5 25.667 -4.5 47s-17.167 41.666 -30.5 60.999v5h111l405 -1190c17.333 -56.667 42.666 -103.334 75.999 -140.001v-4h-188v4c24 39.333 24 94.666 0 165.999
l-105 312h-508l-104 -287c-12.667 -38.667 -15.5 -74.834 -8.5 -108.501s22.167 -61.167 45.5 -82.5v-4h-158zM281.001 518.004h491l-235 703zM481.001 1423h-6l143 217l84 -65z" />
    <glyph glyph-name="Acircumflex" unicode="&#xc2;" horiz-adv-x="1122" 
d="M205 12l-157.999 0.00390625v4c20 24.667 35.833 49.167 47.5 73.5s27.167 63.5 46.5 117.5l375 1026c4 10 2.5 25.667 -4.5 47s-17.167 41.666 -30.5 60.999v5h111l405 -1190c17.333 -56.667 42.666 -103.334 75.999 -140.001v-4h-188v4c24 39.333 24 94.666 0 165.999
l-105 312h-508l-104 -287c-12.667 -38.667 -15.5 -74.834 -8.5 -108.501s22.167 -61.167 45.5 -82.5v-4zM537.001 1221l-256 -703h491zM352.001 1423l176 219l117 -14l105 -205h-15l-157 156l-207 -156h-19z" />
    <glyph glyph-name="Atilde" unicode="&#xc3;" horiz-adv-x="1122" 
d="M47 16c20 24.667 35.834 49.1709 47.501 73.5039s27.167 63.5 46.5 117.5l375 1026c4 10 2.5 25.667 -4.5 47s-17.167 41.666 -30.5 60.999v5h111l405 -1190c17.333 -56.667 42.666 -103.334 75.999 -140.001v-4h-188v4c24 39.333 24 94.666 0 165.999l-105 312h-508
l-104 -287c-12.667 -38.667 -15.5 -74.834 -8.5 -108.501s22.167 -61.167 45.5 -82.5v-4h-158v4zM281.001 518.004h491l-235 703zM319.001 1421c-2 54.667 10.501 96.666 37.501 125.999s63.833 41.333 110.5 36c11.333 -1.33301 22.666 -4.16602 33.999 -8.49902
s26.833 -11.5 46.5 -21.5s32.5 -16.333 38.5 -19c48 -23.333 89 -35 123 -35c33.333 0 55.833 7.83301 67.5 23.5s19.834 41.167 24.501 76.5l2 3c2 -63.333 -8.83301 -111 -32.5 -143s-62.834 -48 -117.501 -48c-28.667 0 -71 15.667 -127 47
c-50.667 30 -90.667 45 -120 45c-24 0 -42.167 -5.66699 -54.5 -17s-21.5 -32.333 -27.5 -63z" />
    <glyph glyph-name="Adieresis" unicode="&#xc4;" horiz-adv-x="1122" 
d="M205 12l-157.999 0.00390625v4c20 24.667 35.833 49.167 47.5 73.5s27.167 63.5 46.5 117.5l375 1026c4 10 2.5 25.667 -4.5 47s-17.167 41.666 -30.5 60.999v5h111l405 -1190c17.333 -56.667 42.666 -103.334 75.999 -140.001v-4h-188v4c24 39.333 24 94.666 0 165.999
l-105 312h-508l-104 -287c-12.667 -38.667 -15.5 -74.834 -8.5 -108.501s22.167 -61.167 45.5 -82.5v-4zM537.001 1221l-256 -703h491zM631.001 1499c0 20.667 7.5 38.5 22.5 53.5s32.833 22.5 53.5 22.5s38.334 -7.5 53.001 -22.5s22 -32.833 22 -53.5
c0 -21.333 -7.33301 -39.333 -22 -54s-32.334 -22 -53.001 -22s-38.5 7.33301 -53.5 22s-22.5 32.667 -22.5 54zM340.001 1499c0 20.667 7.5 38.5 22.5 53.5s32.833 22.5 53.5 22.5c21.333 0 39.333 -7.5 54 -22.5s22 -32.833 22 -53.5c0 -21.333 -7.33301 -39.333 -22 -54
s-32.667 -22 -54 -22c-20.667 0 -38.5 7.33301 -53.5 22s-22.5 32.667 -22.5 54z" />
    <glyph glyph-name="Aring" unicode="&#xc5;" horiz-adv-x="1122" 
d="M205 12l-157.999 0.00390625v4c20 24.667 35.833 49.167 47.5 73.5s27.167 63.5 46.5 117.5l375 1026c4 10 2.5 25.667 -4.5 47s-17.167 41.666 -30.5 60.999v5h111l405 -1190c17.333 -56.667 42.666 -103.334 75.999 -140.001v-4h-188v4c24 39.333 24 94.666 0 165.999
l-105 312h-508l-104 -287c-12.667 -38.667 -15.5 -74.834 -8.5 -108.501s22.167 -61.167 45.5 -82.5v-4zM281.001 518.004h491l-235 703zM532.001 1423c-58.667 0 -104 17.334 -136 52.001s-48 76 -48 124c0 49.333 16.167 91.833 48.5 127.5s78.5 53.5 138.5 53.5
c62.667 -0.666992 110.334 -18 143.001 -52s49 -74.667 49 -122c0 -48.667 -17.333 -91.334 -52 -128.001s-82.334 -55 -143.001 -55zM430.001 1599c0 -44 8.83105 -81.499 26.498 -112.499s42.834 -46.5 75.501 -46.5c36 0 63.833 16.167 83.5 48.5s29.5 70.833 29.5 115.5
c0 43.333 -9.66699 80.666 -29 111.999s-46.333 47 -81 47c-33.333 0 -59.166 -16.167 -77.499 -48.5s-27.5 -70.833 -27.5 -115.5z" />
    <glyph glyph-name="AE" unicode="&#xc6;" horiz-adv-x="1576" 
d="M25 12l-0.00292969 4.00098c52 61.333 95.667 124.333 131 189l530 944c10.667 18.667 16.667 38.5 18 59.5s-3.66699 43.5 -15 67.5s-30 45.667 -56 65v5h807l35 -228h-7c-53.333 78.667 -110 132.5 -170 161.5s-124.667 43.5 -194 43.5h-260v-633h264
c53.333 0 96.833 7.83301 130.5 23.5s65.834 49.5 96.501 101.5h2v-264h-2c-31.333 46.667 -64.166 77.5 -98.499 92.5s-77.166 22.5 -128.499 22.5h-264v-629h311h17c20.667 0 36.334 0.166992 47.001 0.5s25.667 1.5 45 3.5s35.166 5.33301 47.499 10s27.5 11.5 45.5 20.5
s34.5 20 49.5 33s31.5 29.5 49.5 49.5s35.667 43 53 69h7l-35 -211h-836v4c70 29.333 105 93.666 105 192.999v285h-404l-162 -289c-20 -36 -27.5 -72 -22.5 -108s20.833 -63 47.5 -81v-4h-184zM359.997 518.001h390v690z" />
    <glyph glyph-name="Ccedilla" unicode="&#xc7;" horiz-adv-x="1247" 
d="M100 711c4.66699 132 36.334 247.669 95.001 347.002s136.167 174.5 232.5 225.5s204.5 76.5 324.5 76.5c86.667 0 158.167 -10.167 214.5 -30.5s110.166 -51.833 161.499 -94.5l-75 -236h-4c2 98.667 -25.167 179 -81.5 241s-133.166 93 -230.499 93
c-86.667 0 -163.5 -14.5 -230.5 -43.5s-121.5 -69.833 -163.5 -122.5s-74.5 -113.834 -97.5 -183.501s-36.5 -147.5 -40.5 -233.5c-4 -100.667 6.33301 -196.834 31 -288.501s65.334 -169.167 122.001 -232.5c99.333 -110.667 228.333 -166 387 -166
c88 0 174.333 24.167 259 72.5s148.667 117.833 192 208.5l6 -4c-40 -104.667 -102.833 -187.5 -188.5 -248.5s-187.834 -91.5 -306.501 -91.5c-25.333 0 -44 0.666992 -56 2l-12 -41c32 9.33301 69 14 111 14c70.667 -0.666992 126.167 -20.667 166.5 -60
s60.5 -89.666 60.5 -150.999c0 -74 -23.5 -129.333 -70.5 -166s-104.833 -55 -173.5 -55c-85.333 0 -157 22.667 -215 68l55 182h2c-9.33301 -72 1 -128.167 31 -168.5s66.333 -60.5 109 -60.5c31.333 0 59 6.16699 83 18.5s42.5 28.5 55.5 48.5s22.5 41 28.5 63
s9 44.667 9 68c-0.666992 66 -17.167 114.333 -49.5 145s-73.833 46.667 -124.5 48c-42.667 0 -77.667 -11 -105 -33l-10 6l16 76c-72 8.66699 -137.333 27 -196 55s-108.334 63.667 -149.001 107s-74.5 93.666 -101.5 150.999s-46.333 118.833 -58 184.5
s-16.167 135.5 -13.5 209.5z" />
    <glyph glyph-name="Egrave" unicode="&#xc8;" horiz-adv-x="968" 
d="M80 12l0.00292969 4.00098c24.667 20 40.667 42.333 48 67s11 66.667 11 126v940c0 59.333 -3.5 101.5 -10.5 126.5s-22.5 47.5 -46.5 67.5v5l747 -2l35 -228h-4c-28 41.333 -57.5 76 -88.5 104s-62.5 49 -94.5 63s-62.333 23.833 -91 29.5s-59.334 8.5 -92.001 8.5h-261
v-633h267c52.667 0 95.667 7.83301 129 23.5s65.333 49.5 96 101.5h2v-264h-2c-32 46.667 -64.667 77.5 -98 92.5s-75.666 22.5 -126.999 22.5h-267v-629h312h17c28.667 0 50.667 0.333008 66 1s36.166 4.16699 62.499 10.5s49.166 15.666 68.499 27.999
s41.666 30.833 66.999 55.5s50.333 55 75 91h4l-35 -211h-790zM592.003 1423l-221 152l84 65l143 -217h-6z" />
    <glyph glyph-name="Eacute" unicode="&#xc9;" horiz-adv-x="968" 
d="M80 12l0.00292969 4.00098c24.667 20 40.667 42.333 48 67s11 66.667 11 126v940c0 59.333 -3.5 101.5 -10.5 126.5s-22.5 47.5 -46.5 67.5v5l747 -2l35 -228h-4c-28 41.333 -57.5 76 -88.5 104s-62.5 49 -94.5 63s-62.333 23.833 -91 29.5s-59.334 8.5 -92.001 8.5h-261
v-633h267c52.667 0 95.667 7.83301 129 23.5s65.333 49.5 96 101.5h2v-264h-2c-32 46.667 -64.667 77.5 -98 92.5s-75.666 22.5 -126.999 22.5h-267v-629h312h17c28.667 0 50.667 0.333008 66 1s36.166 4.16699 62.499 10.5s49.166 15.666 68.499 27.999
s41.666 30.833 66.999 55.5s50.333 55 75 91h4l-35 -211h-790zM371.003 1423l143 217l84 -65l-221 -152h-6z" />
    <glyph glyph-name="Ecircumflex" unicode="&#xca;" horiz-adv-x="968" 
d="M80 12l0.00292969 4.00098c24.667 20 40.667 42.333 48 67s11 66.667 11 126v940c0 59.333 -3.5 101.5 -10.5 126.5s-22.5 47.5 -46.5 67.5v5l747 -2l35 -228h-4c-28 41.333 -57.5 76 -88.5 104s-62.5 49 -94.5 63s-62.333 23.833 -91 29.5s-59.334 8.5 -92.001 8.5h-261
v-633h267c52.667 0 95.667 7.83301 129 23.5s65.333 49.5 96 101.5h2v-264h-2c-32 46.667 -64.667 77.5 -98 92.5s-75.666 22.5 -126.999 22.5h-267v-629h312h17c28.667 0 50.667 0.333008 66 1s36.166 4.16699 62.499 10.5s49.166 15.666 68.499 27.999
s41.666 30.833 66.999 55.5s50.333 55 75 91h4l-35 -211h-790zM305.003 1423h-20l176 219l117 -14l104 -205h-12l-160 156z" />
    <glyph glyph-name="Edieresis" unicode="&#xcb;" horiz-adv-x="968" 
d="M80 12l0.00292969 4.00098c24.667 20 40.667 42.333 48 67s11 66.667 11 126v940c0 59.333 -3.5 101.5 -10.5 126.5s-22.5 47.5 -46.5 67.5v5l747 -2l35 -228h-4c-28 41.333 -57.5 76 -88.5 104s-62.5 49 -94.5 63s-62.333 23.833 -91 29.5s-59.334 8.5 -92.001 8.5h-261
v-633h267c52.667 0 95.667 7.83301 129 23.5s65.333 49.5 96 101.5h2v-264h-2c-32 46.667 -64.667 77.5 -98 92.5s-75.666 22.5 -126.999 22.5h-267v-629h312h17c28.667 0 50.667 0.333008 66 1s36.166 4.16699 62.499 10.5s49.166 15.666 68.499 27.999
s41.666 30.833 66.999 55.5s50.333 55 75 91h4l-35 -211h-790zM668.003 1423c-20.667 0 -38.5 7.33301 -53.5 22s-22.5 32.667 -22.5 54c0 20.667 7.5 38.5 22.5 53.5s32.833 22.5 53.5 22.5c21.333 0 39.166 -7.5 53.499 -22.5s21.5 -32.833 21.5 -53.5
c0 -21.333 -7.16699 -39.333 -21.5 -54s-32.166 -22 -53.499 -22zM377.003 1423c-20.667 0 -38.167 7.33301 -52.5 22s-21.5 32.667 -21.5 54c0 20.667 7.16699 38.5 21.5 53.5s31.833 22.5 52.5 22.5c21.333 0 39.333 -7.5 54 -22.5s22 -32.833 22 -53.5
c0 -21.333 -7.33301 -39.333 -22 -54s-32.667 -22 -54 -22z" />
    <glyph glyph-name="Igrave" unicode="&#xcc;" horiz-adv-x="360" 
d="M293 12h-211v6c24.667 18.667 40.334 40.5 47.001 65.5s10 67.5 10 127.5v936c0 60 -3.33301 102.333 -10 127s-22.334 47 -47.001 67v5h211v-5c-24.667 -20 -40.334 -42.333 -47.001 -67s-10 -67 -10 -127v-936c0 -60 3.33301 -102.5 10 -127.5
s22.334 -46.833 47.001 -65.5v-6zM66 1575l84 65l145 -217h-6z" />
    <glyph glyph-name="Iacute" unicode="&#xcd;" horiz-adv-x="360" 
d="M293 12h-211v6c24.667 18.667 40.334 40.5 47.001 65.5s10 67.5 10 127.5v936c0 60 -3.33301 102.333 -10 127s-22.334 47 -47.001 67v5h211v-5c-24.667 -20 -40.334 -42.333 -47.001 -67s-10 -67 -10 -127v-936c0 -60 3.33301 -102.5 10 -127.5
s22.334 -46.833 47.001 -65.5v-6zM66 1423l145 217l84 -65l-223 -152h-6z" />
    <glyph glyph-name="Icircumflex" unicode="&#xce;" horiz-adv-x="360" 
d="M293 12h-211v6c24.667 18.667 40.334 40.5 47.001 65.5s10 67.5 10 127.5v936c0 60 -3.33301 102.333 -10 127s-22.334 47 -47.001 67v5h211v-5c-24.667 -20 -40.334 -42.333 -47.001 -67s-10 -67 -10 -127v-936c0 -60 3.33301 -102.5 10 -127.5
s22.334 -46.833 47.001 -65.5v-6zM-2 1423h-21l177 219l118 -16l103 -203h-13l-157 154z" />
    <glyph glyph-name="Idieresis" unicode="&#xcf;" horiz-adv-x="360" 
d="M82 1341v5h211v-5c-24.667 -20 -40.334 -42.333 -47.001 -67s-10 -67 -10 -127v-936c0 -60 3.33301 -102.5 10 -127.5s22.334 -46.833 47.001 -65.5v-6h-211v6c24.667 18.667 40.334 40.5 47.001 65.5s10 67.5 10 127.5v936c0 60 -3.33301 102.333 -10 127
s-22.334 47 -47.001 67zM250 1499c0 20.667 7.5 38.5 22.5 53.5s32.833 22.5 53.5 22.5s38.334 -7.5 53.001 -22.5s22 -32.833 22 -53.5s-7.33301 -38.5 -22 -53.5s-32.334 -22.5 -53.001 -22.5s-38.5 7.5 -53.5 22.5s-22.5 32.833 -22.5 53.5zM-41 1499
c0 20.667 7.5 38.5 22.5 53.5s32.833 22.5 53.5 22.5c21.333 0 39.333 -7.5 54 -22.5s22 -32.833 22 -53.5s-7.33301 -38.5 -22 -53.5s-32.667 -22.5 -54 -22.5c-20.667 0 -38.5 7.5 -53.5 22.5s-22.5 32.833 -22.5 53.5z" />
    <glyph glyph-name="Eth" unicode="&#xd0;" horiz-adv-x="1183" 
d="M37 635v31h100v481c0 60 -3.33301 102.333 -10 127s-22.334 47 -47.001 67v5h395c194 0 343.833 -57.5 449.5 -172.5s158.5 -282.167 158.5 -501.5c0 -218 -52.5 -382.5 -157.5 -493.5s-255.167 -166.5 -450.5 -166.5h-395v4c24.667 20 40.334 41.833 47.001 65.5
s10 65.5 10 125.5v428h-100zM233 635v-598h173c379.333 0 569 213 569 639c0 430 -189.667 645 -569 645h-173v-655h396v-31h-396z" />
    <glyph glyph-name="Ntilde" unicode="&#xd1;" horiz-adv-x="1161" 
d="M147 1147c0 54 -5.83301 94.167 -17.5 120.5s-31.5 50.833 -59.5 73.5v5h153l789 -1211l2 1012c0 44 -8.16699 81.5 -24.5 112.5s-44.5 58.167 -84.5 81.5v5h209v-5c-52 -35.333 -78 -100 -78 -194v-1135h-57l-809 1235v-1036c0 -44.667 8.16699 -82.5 24.5 -113.5
s44.5 -58.167 84.5 -81.5v-4h-209v4c51.333 35.333 77 100.333 77 195v936zM371 1434c-2 55.333 10.502 97.5 37.502 126.5s64.167 40.5 111.5 34.5c11.333 -1.33301 22.833 -4.33301 34.5 -9s26.5 -11.5 44.5 -20.5s31.333 -15.5 40 -19.5c48 -23.333 88.333 -35 121 -35
c33.333 0 56.166 8.33301 68.499 25s20.166 42 23.499 76l2 2c2 -63.333 -8.5 -111 -31.5 -143s-62.167 -48 -117.5 -48c-28.667 0 -71 15.667 -127 47c-52 30.667 -91.667 46 -119 46c-24.667 0 -43.167 -5.66699 -55.5 -17s-21.833 -32.333 -28.5 -63z" />
    <glyph glyph-name="Ograve" unicode="&#xd2;" horiz-adv-x="1368" 
d="M100 643c0 108 17.001 207.5 51.001 298.5s79.667 166.667 137 227s123.666 107.333 198.999 141s154.666 50.5 237.999 50.5c164.667 0 296.334 -55 395.001 -165s148 -267.333 148 -472c0 -106 -17.167 -204.667 -51.5 -296s-80.333 -167.833 -138 -229.5
s-124.5 -110 -200.5 -145s-155 -52.5 -237 -52.5c-162.667 0 -293.5 56.167 -392.5 168.5s-148.5 270.5 -148.5 474.5zM205.001 743c-0.666992 -54 1.49902 -106.33 6.49902 -156.997s13.667 -103.334 26 -158.001s30.333 -104.5 54 -149.5s52.334 -85.667 86.001 -122
s76.167 -64.666 127.5 -84.999s109 -30.5 173 -30.5c68.667 0 130.5 10.833 185.5 32.5s100.833 51 137.5 88s67.334 81 92.001 132s42.5 104.167 53.5 159.5s17.167 114 18.5 176c1.33301 65.333 -1.83398 128.333 -9.50098 189s-22.334 122.167 -44.001 184.5
s-50 116.166 -85 161.499s-81.667 82.5 -140 111.5s-125.166 43.5 -200.499 43.5c-68 0 -129.333 -10.5 -184 -31.5s-100 -49.333 -136 -85s-66 -78.334 -90 -128.001s-41.5 -101.834 -52.5 -156.501s-17.167 -113 -18.5 -175zM793 1423l-222 152l82 65l146 -217h-6z" />
    <glyph glyph-name="Oacute" unicode="&#xd3;" horiz-adv-x="1368" 
d="M100 643c0 108 17.001 207.5 51.001 298.5s79.667 166.667 137 227s123.666 107.333 198.999 141s154.666 50.5 237.999 50.5c164.667 0 296.334 -55 395.001 -165s148 -267.333 148 -472c0 -106 -17.167 -204.667 -51.5 -296s-80.333 -167.833 -138 -229.5
s-124.5 -110 -200.5 -145s-155 -52.5 -237 -52.5c-162.667 0 -293.5 56.167 -392.5 168.5s-148.5 270.5 -148.5 474.5zM205.001 743c-0.666992 -54 1.49902 -106.33 6.49902 -156.997s13.667 -103.334 26 -158.001s30.333 -104.5 54 -149.5s52.334 -85.667 86.001 -122
s76.167 -64.666 127.5 -84.999s109 -30.5 173 -30.5c68.667 0 130.5 10.833 185.5 32.5s100.833 51 137.5 88s67.334 81 92.001 132s42.5 104.167 53.5 159.5s17.167 114 18.5 176c1.33301 65.333 -1.83398 128.333 -9.50098 189s-22.334 122.167 -44.001 184.5
s-50 116.166 -85 161.499s-81.667 82.5 -140 111.5s-125.166 43.5 -200.499 43.5c-68 0 -129.333 -10.5 -184 -31.5s-100 -49.333 -136 -85s-66 -78.334 -90 -128.001s-41.5 -101.834 -52.5 -156.501s-17.167 -113 -18.5 -175zM573 1423l144 217l84 -65l-221 -152h-7z" />
    <glyph glyph-name="Ocircumflex" unicode="&#xd4;" horiz-adv-x="1368" 
d="M100 643c0 108 17.001 207.5 51.001 298.5s79.667 166.667 137 227s123.666 107.333 198.999 141s154.666 50.5 237.999 50.5c164.667 0 296.334 -55 395.001 -165s148 -267.333 148 -472c0 -106 -17.167 -204.667 -51.5 -296s-80.333 -167.833 -138 -229.5
s-124.5 -110 -200.5 -145s-155 -52.5 -237 -52.5c-162.667 0 -293.5 56.167 -392.5 168.5s-148.5 270.5 -148.5 474.5zM205.001 743c-0.666992 -54 1.49902 -106.33 6.49902 -156.997s13.667 -103.334 26 -158.001s30.333 -104.5 54 -149.5s52.334 -85.667 86.001 -122
s76.167 -64.666 127.5 -84.999s109 -30.5 173 -30.5c68.667 0 130.5 10.833 185.5 32.5s100.833 51 137.5 88s67.334 81 92.001 132s42.5 104.167 53.5 159.5s17.167 114 18.5 176c1.33301 65.333 -1.83398 128.333 -9.50098 189s-22.334 122.167 -44.001 184.5
s-50 116.166 -85 161.499s-81.667 82.5 -140 111.5s-125.166 43.5 -200.499 43.5c-68 0 -129.333 -10.5 -184 -31.5s-100 -49.333 -136 -85s-66 -78.334 -90 -128.001s-41.5 -101.834 -52.5 -156.501s-17.167 -113 -18.5 -175zM504 1423h-19l177 219l116 -14l105 -205h-13
l-159 156z" />
    <glyph glyph-name="Otilde" unicode="&#xd5;" horiz-adv-x="1368" 
d="M100 643c0 108 17.001 207.5 51.001 298.5s79.667 166.667 137 227s123.666 107.333 198.999 141s154.666 50.5 237.999 50.5c164.667 0 296.334 -55 395.001 -165s148 -267.333 148 -472c0 -106 -17.167 -204.667 -51.5 -296s-80.333 -167.833 -138 -229.5
s-124.5 -110 -200.5 -145s-155 -52.5 -237 -52.5c-162.667 0 -293.5 56.167 -392.5 168.5s-148.5 270.5 -148.5 474.5zM205.001 743c-0.666992 -54 1.49902 -106.33 6.49902 -156.997s13.667 -103.334 26 -158.001s30.333 -104.5 54 -149.5s52.334 -85.667 86.001 -122
s76.167 -64.666 127.5 -84.999s109 -30.5 173 -30.5c68.667 0 130.5 10.833 185.5 32.5s100.833 51 137.5 88s67.334 81 92.001 132s42.5 104.167 53.5 159.5s17.167 114 18.5 176c1.33301 65.333 -1.83398 128.333 -9.50098 189s-22.334 122.167 -44.001 184.5
s-50 116.166 -85 161.499s-81.667 82.5 -140 111.5s-125.166 43.5 -200.499 43.5c-68 0 -129.333 -10.5 -184 -31.5s-100 -49.333 -136 -85s-66 -78.334 -90 -128.001s-41.5 -101.834 -52.5 -156.501s-17.167 -113 -18.5 -175zM442 1436c-2 54 10.667 95.5 38 124.5
s64.666 40.5 111.999 34.5c11.333 -1.33301 22.833 -4.33301 34.5 -9s26.5 -11.5 44.5 -20.5s31.333 -15.5 40 -19.5c45.333 -22 85.333 -33 120 -33c33.333 0 56.333 8.16699 69 24.5s20.667 41.833 24 76.5h2c2 -63.333 -8.66699 -111 -32 -143s-62.666 -48 -117.999 -48
c-28.667 0 -71 15.667 -127 47c-52 30.667 -91.667 46 -119 46c-24.667 0 -43.167 -5.66699 -55.5 -17s-21.833 -32.333 -28.5 -63h-4z" />
    <glyph glyph-name="Odieresis" unicode="&#xd6;" horiz-adv-x="1368" 
d="M100 643c0 108 17.001 207.5 51.001 298.5s79.667 166.667 137 227s123.666 107.333 198.999 141s154.666 50.5 237.999 50.5c164.667 0 296.334 -55 395.001 -165s148 -267.333 148 -472c0 -106 -17.167 -204.667 -51.5 -296s-80.333 -167.833 -138 -229.5
s-124.5 -110 -200.5 -145s-155 -52.5 -237 -52.5c-162.667 0 -293.5 56.167 -392.5 168.5s-148.5 270.5 -148.5 474.5zM205.001 743c-0.666992 -54 1.49902 -106.33 6.49902 -156.997s13.667 -103.334 26 -158.001s30.333 -104.5 54 -149.5s52.334 -85.667 86.001 -122
s76.167 -64.666 127.5 -84.999s109 -30.5 173 -30.5c68.667 0 130.5 10.833 185.5 32.5s100.833 51 137.5 88s67.334 81 92.001 132s42.5 104.167 53.5 159.5s17.167 114 18.5 176c1.33301 65.333 -1.83398 128.333 -9.50098 189s-22.334 122.167 -44.001 184.5
s-50 116.166 -85 161.499s-81.667 82.5 -140 111.5s-125.166 43.5 -200.499 43.5c-68 0 -129.333 -10.5 -184 -31.5s-100 -49.333 -136 -85s-66 -78.334 -90 -128.001s-41.5 -101.834 -52.5 -156.501s-17.167 -113 -18.5 -175zM485 1499c0 20.667 7.5 38.5 22.5 53.5
s32.833 22.5 53.5 22.5c21.333 0 39.333 -7.5 54 -22.5s22 -32.833 22 -53.5s-7.33301 -38.5 -22 -53.5s-32.667 -22.5 -54 -22.5c-20.667 0 -38.5 7.5 -53.5 22.5s-22.5 32.833 -22.5 53.5zM776 1499c0 20.667 7.5 38.5 22.5 53.5s32.833 22.5 53.5 22.5
c21.333 0 39.333 -7.5 54 -22.5s22 -32.833 22 -53.5s-7.33301 -38.5 -22 -53.5s-32.667 -22.5 -54 -22.5c-20.667 0 -38.5 7.5 -53.5 22.5s-22.5 32.833 -22.5 53.5z" />
    <glyph glyph-name="multiply" unicode="&#xd7;" horiz-adv-x="794" 
d="M412 696l180 228l24 -21l-184 -231l168 -213l-25 -19l-163 207l-164 -207l-25 19l168 213l-182 231l24 19z" />
    <glyph glyph-name="Oslash" unicode="&#xd8;" horiz-adv-x="1368" 
d="M100 643c0 108 17.002 207.501 51.002 298.501s79.667 166.667 137 227s123.666 107.333 198.999 141s154.666 50.5 237.999 50.5c78.667 0 149 -12.333 211 -37l55 141h31l-59 -151c96 -44 170.833 -116.167 224.5 -216.5s80.5 -224.833 80.5 -373.5
c0 -106 -17.167 -204.667 -51.5 -296s-80.333 -167.833 -138 -229.5s-124.5 -110 -200.5 -145s-155 -52.5 -237 -52.5c-60 0 -120.667 9.66699 -182 29l-80 -205h-33l86 215c-104 40.667 -185.333 112.667 -244 216s-88 232.666 -88 387.999zM205.002 743.001
c-1.33301 -63.333 1.5 -124.663 8.5 -183.996s19.167 -119.333 36.5 -180s43.5 -115.834 78.5 -165.501s77.167 -88.834 126.5 -117.501l456 1168c-62 36.667 -137 55 -225 55c-68 0 -129.333 -10.5 -184 -31.5s-100 -49.333 -136 -85s-66 -78.334 -90 -128.001
s-41.5 -101.834 -52.5 -156.501s-17.167 -113 -18.5 -175zM481.002 82.0039c60 -27.333 125.668 -41.001 197.001 -41.001c68.667 0 130.5 10.833 185.5 32.5s100.833 51 137.5 88s67.334 81 92.001 132s42.5 104.167 53.5 159.5s17.167 114 18.5 176
c1.33301 60.667 -1.33398 119.167 -8.00098 175.5s-18.167 112.833 -34.5 169.5s-40.333 108.834 -72 156.501s-69.834 86.5 -114.501 116.5z" />
    <glyph glyph-name="Ugrave" unicode="&#xd9;" horiz-adv-x="1155" 
d="M125 1147c0 60 -3.33105 102.331 -9.99805 126.998s-22.334 47 -47.001 67v5h223v-5c-26.667 -21.333 -45 -45.166 -55 -71.499s-15 -67.166 -15 -122.499v-666c0 -138 35.833 -246.5 107.5 -325.5s173.834 -116.5 306.501 -112.5c114 4 202.167 42.667 264.5 116
s93.5 180 93.5 320v668c1.33301 44.667 -5.83398 82.334 -21.501 113.001s-43.834 57.667 -84.501 81v5h209v-5c-52 -35.333 -78 -100 -78 -194v-682c0 -64.667 -8.16699 -124.167 -24.5 -178.5s-41.333 -103.333 -75 -147s-79.167 -77.834 -136.5 -102.501
s-124 -37 -200 -37c-304.667 0 -457 166.667 -457 500v647zM647.002 1423l-221 152l84 65l143 -217h-6z" />
    <glyph glyph-name="Uacute" unicode="&#xda;" horiz-adv-x="1155" 
d="M125 1147c0 60 -3.33105 102.331 -9.99805 126.998s-22.334 47 -47.001 67v5h223v-5c-26.667 -21.333 -45 -45.166 -55 -71.499s-15 -67.166 -15 -122.499v-666c0 -138 35.833 -246.5 107.5 -325.5s173.834 -116.5 306.501 -112.5c114 4 202.167 42.667 264.5 116
s93.5 180 93.5 320v668c1.33301 44.667 -5.83398 82.334 -21.501 113.001s-43.834 57.667 -84.501 81v5h209v-5c-52 -35.333 -78 -100 -78 -194v-682c0 -64.667 -8.16699 -124.167 -24.5 -178.5s-41.333 -103.333 -75 -147s-79.167 -77.834 -136.5 -102.501
s-124 -37 -200 -37c-304.667 0 -457 166.667 -457 500v647zM526.002 1423h-6l144 217l84 -65z" />
    <glyph glyph-name="Ucircumflex" unicode="&#xdb;" horiz-adv-x="1155" 
d="M68 1346l223.002 -0.00195312v-5c-26.667 -21.333 -45 -45.166 -55 -71.499s-15 -67.166 -15 -122.499v-666c0 -138 35.833 -246.5 107.5 -325.5s173.834 -116.5 306.501 -112.5c114 4 202.167 42.667 264.5 116s93.5 180 93.5 320v668
c1.33301 44.667 -5.83398 82.334 -21.501 113.001s-43.834 57.667 -84.501 81v5h209v-5c-52 -35.333 -78 -100 -78 -194v-682c0 -64.667 -8.16699 -124.167 -24.5 -178.5s-41.333 -103.333 -75 -147s-79.167 -77.834 -136.5 -102.501s-124 -37 -200 -37
c-304.667 0 -457 166.667 -457 500v647c0 60 -3.33301 102.333 -10 127s-22.334 47 -47.001 67v5zM379.002 1423l176 219l117 -14l104 -205h-14l-158 156l-207 -156h-18z" />
    <glyph glyph-name="Udieresis" unicode="&#xdc;" horiz-adv-x="1155" 
d="M125 1147c0 60 -3.33105 102.331 -9.99805 126.998s-22.334 47 -47.001 67v5h223v-5c-26.667 -21.333 -45 -45.166 -55 -71.499s-15 -67.166 -15 -122.499v-666c0 -138 35.833 -246.5 107.5 -325.5s173.834 -116.5 306.501 -112.5c114 4 202.167 42.667 264.5 116
s93.5 180 93.5 320v668c1.33301 44.667 -5.83398 82.334 -21.501 113.001s-43.834 57.667 -84.501 81v5h209v-5c-52 -35.333 -78 -100 -78 -194v-682c0 -64.667 -8.16699 -124.167 -24.5 -178.5s-41.333 -103.333 -75 -147s-79.167 -77.834 -136.5 -102.501
s-124 -37 -200 -37c-304.667 0 -457 166.667 -457 500v647zM666.002 1499c0 20.667 7.33301 38.5 22 53.5s32.334 22.5 53.001 22.5s38.5 -7.5 53.5 -22.5s22.5 -32.833 22.5 -53.5s-7.5 -38.5 -22.5 -53.5s-32.833 -22.5 -53.5 -22.5s-38.334 7.5 -53.001 22.5
s-22 32.833 -22 53.5zM375.002 1499c0 20.667 7.5 38.5 22.5 53.5s32.833 22.5 53.5 22.5c21.333 0 39.166 -7.5 53.499 -22.5s21.5 -32.833 21.5 -53.5s-7.16699 -38.5 -21.5 -53.5s-32.166 -22.5 -53.499 -22.5c-20.667 0 -38.5 7.5 -53.5 22.5s-22.5 32.833 -22.5 53.5z
" />
    <glyph glyph-name="Yacute" unicode="&#xdd;" horiz-adv-x="1198" 
d="M59 1341v5.00098h185v-5c-7.33301 -29.333 -9.16602 -54 -5.49902 -74s14.167 -43.667 31.5 -71l402 -633l291 543c52 100.667 61.333 179 28 235v5h150v-5c-38 -40 -91.333 -123.667 -160 -251l-301 -566v-313c0 -60 3.33301 -102.5 10 -127.5s21.667 -46.833 45 -65.5
v-6h-209v6c24 19.333 39.667 41.666 47 66.999s11 67.333 11 126v311l-430 680c-42.667 68.667 -74.334 115 -95.001 139zM545 1423h-6l143 217l84 -65z" />
    <glyph glyph-name="Thorn" unicode="&#xde;" horiz-adv-x="1255" 
d="M137 12l0.000976562 1334h96v-218l218 2c67.333 0 130.5 -7.66699 189.5 -23s112.667 -38.666 161 -69.999s86.5 -73.833 114.5 -127.5s42 -115.834 42 -186.501c0 -53.333 -7.5 -101 -22.5 -143s-33.833 -76.667 -56.5 -104s-52.167 -50.833 -88.5 -70.5
s-70.333 -34.5 -102 -44.5s-69.834 -17.833 -114.501 -23.5s-81.167 -9 -109.5 -10s-62.5 -1.5 -102.5 -1.5h-129v-314h-96zM233.001 350l199 -0.000976562c135.333 0 238.5 31.333 309.5 94s106.5 151.667 106.5 267c0 136.667 -41.833 236.334 -125.5 299.001
s-208.5 94 -374.5 94h-115v-754z" />
    <glyph glyph-name="germandbls" unicode="&#xdf;" horiz-adv-x="1140" 
d="M262 12l-177.999 0.000976562v4c54.667 35.333 82 106.333 82 213v713c0 89.333 17.5 164.833 52.5 226.5s81.333 106.667 139 135s124.167 42.5 199.5 42.5c109.333 0 196 -24 260 -72s96 -123.667 96 -227l-323 -332c58 3.33301 114.167 -1.66699 168.5 -15
s104 -34 149 -62s81.167 -66.333 108.5 -115s41 -104.334 41 -167.001c0 -237.333 -129 -356 -387 -356c-50 0 -96.167 8 -138.5 24s-72.833 38.667 -91.5 68l66 146h4c0 -71.333 15.5 -125.5 46.5 -162.5s72.167 -55.5 123.5 -55.5c82 0 148.167 30.5 198.5 91.5
s75.5 133.833 75.5 218.5c0 114.667 -38.167 202.667 -114.5 264s-181.5 94.666 -315.5 99.999l-12 17l362 350c0 83.333 -29.833 147.833 -89.5 193.5s-132.834 67.834 -219.501 66.501c-92 -1.33301 -165.5 -29 -220.5 -83s-82.5 -134.333 -82.5 -241v-985z" />
    <glyph glyph-name="agrave" unicode="&#xe0;" horiz-adv-x="888" 
d="M293 0c-70 0 -126.836 17.999 -170.503 53.999s-65.5 88.333 -65.5 157c0 68 21.833 121.667 65.5 161s105.834 71 186.501 95c79.333 22.667 187.333 43.667 324 63v134c0 66.667 -17.667 121.334 -53 164.001s-86 63.667 -152 63c-62 -2 -117.5 -22.667 -166.5 -62
s-82.833 -86.333 -101.5 -141h-4l-35 150c76 48.667 177.667 73 305 73c199.333 0 299 -90.667 299 -272v-510c0 -26 8 -45.167 24 -57.5s36 -18.5 60 -18.5c20.667 0 39.667 4.33301 57 13l2 -5c-11.333 -14.667 -30.166 -28.5 -56.499 -41.5s-53.166 -19.5 -80.499 -19.5
c-30.667 0 -54 10.667 -70 32s-24.667 43.333 -26 66c-102 -65.333 -216 -98 -342 -98zM161.997 226.999c0 -62 18.668 -109.167 56.001 -141.5s87.666 -48.5 150.999 -48.5c80.667 0 168.667 28 264 84v389c-120 -22.667 -215.667 -48 -287 -76
c-122.667 -45.333 -184 -114.333 -184 -207zM527.998 1028l-223 152l84 65l146 -217h-7z" />
    <glyph glyph-name="aacute" unicode="&#xe1;" horiz-adv-x="888" 
d="M57 211c0 68 21.8301 121.666 65.4971 160.999s105.834 71 186.501 95c79.333 22.667 187.333 43.667 324 63v134c0 66.667 -17.667 121.334 -53 164.001s-86 63.667 -152 63c-62 -2 -117.5 -22.667 -166.5 -62s-82.833 -86.333 -101.5 -141h-4l-35 150
c76 48.667 177.667 73 305 73c199.333 0 299 -90.667 299 -272v-510c0 -26 8 -45.167 24 -57.5s36 -18.5 60 -18.5c20.667 0 39.667 4.33301 57 13l2 -5c-11.333 -14.667 -30.166 -28.5 -56.499 -41.5s-53.166 -19.5 -80.499 -19.5c-30.667 0 -54 10.667 -70 32
s-24.667 43.333 -26 66c-102 -65.333 -216 -98 -342 -98c-70 0 -126.833 18 -170.5 54s-65.5 88.333 -65.5 157zM161.997 226.999c0 -62 18.668 -109.167 56.001 -141.5s87.666 -48.5 150.999 -48.5c80.667 0 168.667 28 264 84v389c-120 -22.667 -215.667 -48 -287 -76
c-122.667 -45.333 -184 -114.333 -184 -207zM353.998 1028l144 217l84 -65l-222 -152h-6z" />
    <glyph glyph-name="acircumflex" unicode="&#xe2;" horiz-adv-x="888" 
d="M293 0c-70 0 -126.836 17.999 -170.503 53.999s-65.5 88.333 -65.5 157c0 68 21.833 121.667 65.5 161s105.834 71 186.501 95c79.333 22.667 187.333 43.667 324 63v134c0 66.667 -17.667 121.334 -53 164.001s-86 63.667 -152 63c-62 -2 -117.5 -22.667 -166.5 -62
s-82.833 -86.333 -101.5 -141h-4l-35 150c76 48.667 177.667 73 305 73c199.333 0 299 -90.667 299 -272v-510c0 -26 8 -45.167 24 -57.5s36 -18.5 60 -18.5c20.667 0 39.667 4.33301 57 13l2 -5c-11.333 -14.667 -30.166 -28.5 -56.499 -41.5s-53.166 -19.5 -80.499 -19.5
c-30.667 0 -54 10.667 -70 32s-24.667 43.333 -26 66c-102 -65.333 -216 -98 -342 -98zM161.997 226.999c0 -62 18.668 -109.167 56.001 -141.5s87.666 -48.5 150.999 -48.5c80.667 0 168.667 28 264 84v389c-120 -22.667 -215.667 -48 -287 -76
c-122.667 -45.333 -184 -114.333 -184 -207zM216.998 1030l176 219l117 -16l104 -203h-6l-166 154l-221 -154h-4z" />
    <glyph glyph-name="atilde" unicode="&#xe3;" horiz-adv-x="888" 
d="M293 0c-70 0 -126.836 17.999 -170.503 53.999s-65.5 88.333 -65.5 157c0 68 21.833 121.667 65.5 161s105.834 71 186.501 95c79.333 22.667 187.333 43.667 324 63v134c0 66.667 -17.667 121.334 -53 164.001s-86 63.667 -152 63c-62 -2 -117.5 -22.667 -166.5 -62
s-82.833 -86.333 -101.5 -141h-4l-35 150c76 48.667 177.667 73 305 73c199.333 0 299 -90.667 299 -272v-510c0 -26 8 -45.167 24 -57.5s36 -18.5 60 -18.5c20.667 0 39.667 4.33301 57 13l2 -5c-11.333 -14.667 -30.166 -28.5 -56.499 -41.5s-53.166 -19.5 -80.499 -19.5
c-30.667 0 -54 10.667 -70 32s-24.667 43.333 -26 66c-102 -65.333 -216 -98 -342 -98zM345.997 433.999c-122.667 -45.333 -183.999 -114.333 -183.999 -207c0 -62 18.667 -109.167 56 -141.5s87.666 -48.5 150.999 -48.5c80.667 0 168.667 28 264 84v389
c-120 -22.667 -215.667 -48 -287 -76zM181.998 1038c-2 55.333 10.668 97.666 38.001 126.999s64 41 110 35c11.333 -1.33301 22.666 -4.16602 33.999 -8.49902s26.833 -11.5 46.5 -21.5s32.5 -16.333 38.5 -19c48 -23.333 88.667 -35 122 -35s56 8.33301 68 25
s19.667 42 23 76l4 2c2 -62.667 -8.83301 -110.167 -32.5 -142.5s-62.834 -48.5 -117.501 -48.5c-31.333 0 -73.666 15.667 -126.999 47c-53.333 30 -93.666 45 -120.999 45c-24 0 -42.333 -5.66699 -55 -17s-22.334 -32.333 -29.001 -63z" />
    <glyph glyph-name="adieresis" unicode="&#xe4;" horiz-adv-x="935" 
d="M293 0c-70 0 -126.836 17.999 -170.503 53.999s-65.5 88.333 -65.5 157c0 68 21.833 121.667 65.5 161s105.834 71 186.501 95c79.333 22.667 187.333 43.667 324 63v134c0 66.667 -17.667 121.334 -53 164.001s-86 63.667 -152 63c-62 -2 -117.5 -22.667 -166.5 -62
s-82.833 -86.333 -101.5 -141h-4l-35 150c76 48.667 177.667 73 305 73c199.333 0 299 -90.667 299 -272v-510c0 -26 8 -45.167 24 -57.5s36 -18.5 60 -18.5c20.667 0 39.667 4.33301 57 13l2 -5c-11.333 -14.667 -30.166 -28.5 -56.499 -41.5s-53.166 -19.5 -80.499 -19.5
c-30.667 0 -54 10.667 -70 32s-24.667 43.333 -26 66c-102 -65.333 -216 -98 -342 -98zM161.997 226.999c0 -62 18.668 -109.167 56.001 -141.5s87.666 -48.5 150.999 -48.5c80.667 0 168.667 28 264 84v389c-120 -22.667 -215.667 -48 -287 -76
c-122.667 -45.333 -184 -114.333 -184 -207zM558.998 1028c-20.667 0 -38.5 7.33301 -53.5 22s-22.5 32.667 -22.5 54c0 20.667 7.5 38.5 22.5 53.5s32.833 22.5 53.5 22.5s38.5 -7.5 53.5 -22.5s22.5 -32.833 22.5 -53.5c0 -21.333 -7.5 -39.333 -22.5 -54
s-32.833 -22 -53.5 -22zM185.998 1104c0 20.667 7.5 38.5 22.5 53.5s32.833 22.5 53.5 22.5s38.5 -7.5 53.5 -22.5s22.5 -32.833 22.5 -53.5c0 -21.333 -7.5 -39.333 -22.5 -54s-32.833 -22 -53.5 -22s-38.5 7.33301 -53.5 22s-22.5 32.667 -22.5 54z" />
    <glyph glyph-name="aring" unicode="&#xe5;" horiz-adv-x="888" 
d="M57 211c0 68 21.8301 121.666 65.4971 160.999s105.834 71 186.501 95c79.333 22.667 187.333 43.667 324 63v134c0 66.667 -17.667 121.334 -53 164.001s-86 63.667 -152 63c-62 -2 -117.5 -22.667 -166.5 -62s-82.833 -86.333 -101.5 -141h-4l-35 150
c76 48.667 177.667 73 305 73c199.333 0 299 -90.667 299 -272v-510c0 -26 8 -45.167 24 -57.5s36 -18.5 60 -18.5c20.667 0 39.667 4.33301 57 13l2 -5c-11.333 -14.667 -30.166 -28.5 -56.499 -41.5s-53.166 -19.5 -80.499 -19.5c-30.667 0 -54 10.667 -70 32
s-24.667 43.333 -26 66c-102 -65.333 -216 -98 -342 -98c-70 0 -126.833 18 -170.5 54s-65.5 88.333 -65.5 157zM345.997 433.999c-122.667 -45.333 -183.999 -114.333 -183.999 -207c0 -62 18.667 -109.167 56 -141.5s87.666 -48.5 150.999 -48.5
c80.667 0 168.667 28 264 84v389c-120 -22.667 -215.667 -48 -287 -76zM230.998 1204c0 49.333 16.168 91.667 48.501 127s78.5 53 138.5 53c61.333 -0.666992 108.333 -18 141 -52s49 -74.667 49 -122c0 -49.333 -17 -92 -51 -128s-81.667 -54 -143 -54
c-58.667 0 -103.834 17.333 -135.501 52s-47.5 76 -47.5 124zM310.999 1204c0 -43.333 9.16895 -80.833 27.502 -112.5s44.166 -47.5 77.499 -47.5c34.667 0 61.667 16.167 81 48.5s29 70.833 29 115.5c0 44 -9.33301 81.667 -28 113s-45.334 47 -80.001 47
c-33.333 0 -59.5 -16.333 -78.5 -49s-28.5 -71 -28.5 -115z" />
    <glyph glyph-name="ae" unicode="&#xe6;" horiz-adv-x="1439" 
d="M41 211c0 67.333 21.834 120.831 65.501 160.498s105.167 71.5 184.5 95.5c80.667 23.333 189 44.333 325 63v134c0 66.667 -17.5 121.334 -52.5 164.001s-85.5 63.667 -151.5 63c-62.667 -2 -118.5 -22.667 -167.5 -62s-82.833 -86.333 -101.5 -141h-6l-33 150
c76 48.667 178 73 306 73c163.333 0 259.333 -61.333 288 -184c81.333 122.667 203.666 184 366.999 184c104 0 181.167 -30.667 231.5 -92s74.833 -142.666 73.5 -243.999h-645c-2.66699 -24 -4 -41.667 -4 -53c-2 -22 -2 -44.333 0 -67c4 -52 14.333 -101.167 31 -147.5
s39.167 -88.166 67.5 -125.499s64.5 -66.833 108.5 -88.5s93 -32.5 147 -32.5s107 11.167 159 33.5s97.333 55.166 136 98.499h4c-76 -128.667 -192.667 -193 -350 -193c-128.667 0 -231 45.667 -307 137c-86.667 -45.333 -163.5 -79.5 -230.5 -102.5
s-137.167 -34.5 -210.5 -34.5c-70 0 -126.667 18 -170 54s-65 88.333 -65 157zM145.001 226.998c0 -62 18.668 -109.167 56.001 -141.5s87.666 -48.5 150.999 -48.5c78 0 166 28 264 84v389c-118 -22 -214 -47.333 -288 -76c-122 -44.667 -183 -113.667 -183 -207z
M1049 892.998c-84.667 0 -155.666 -27.9971 -212.999 -83.9971s-93 -127 -107 -213h297c22 0 39.667 0.333008 53 1s30.5 2.16699 51.5 4.5s37.667 6.16602 50 11.499s25.166 12.666 38.499 21.999s23 21.5 29 36.5s9 32.833 9 53.5c0 49.333 -20.333 89.666 -61 120.999
s-89.667 47 -147 47z" />
    <glyph glyph-name="ccedilla" unicode="&#xe7;" 
d="M373 14c-92.667 24.667 -164.666 76.165 -215.999 154.498s-76.333 170.166 -75 275.499c0.666992 47.333 6.5 93.333 17.5 138s28.5 87 52.5 127s53 74.833 87 104.5s76 53.334 126 71.001s105 26.5 165 26.5c91.333 0 174.666 -24.333 249.999 -73l-57 -181l-4 2
c-8 76 -33.5 133 -76.5 171s-100.167 57 -171.5 57c-60 0 -113.167 -20.5 -159.5 -61.5s-80.666 -94.667 -102.999 -161s-31.166 -137.5 -26.499 -213.5c4 -52 14.333 -101.167 31 -147.5s39.167 -88.166 67.5 -125.499s64.666 -66.833 108.999 -88.5
s93.5 -32.5 147.5 -32.5s107.667 11.667 161 35s99.333 57 138 101h4c-76 -128.667 -193 -193 -351 -193c-31.333 0 -59 2.66699 -83 8l-11 -47c33.333 9.33301 71 14 113 14c70.667 -0.666992 126.167 -20.667 166.5 -60s60.5 -89.666 60.5 -150.999
c0 -74 -23.333 -129.333 -70 -166s-104.334 -55 -173.001 -55c-85.333 0 -158 22.667 -218 68l58 182h2c-9.33301 -72.667 0.833984 -129 30.501 -169s65.834 -60 108.501 -60c31.333 0 59 6.16699 83 18.5s42.333 28.5 55 48.5s22 41.167 28 63.5s8.66699 44.833 8 67.5
c-0.666992 66 -16.834 114.333 -48.501 145s-72.834 46.667 -123.501 48c-42 0 -76.667 -11 -104 -33l-11 6z" />
    <glyph glyph-name="egrave" unicode="&#xe8;" horiz-adv-x="899" 
d="M483 0c-126.667 0 -226.167 42.3301 -298.5 126.997s-107.833 190.334 -106.5 317.001c0.666992 47.333 6.5 93.333 17.5 138s28.333 87 52 127s52.667 74.833 87 104.5s76.333 53.334 126 71.001s104.167 26.5 163.5 26.5c104 0 181.167 -30.667 231.5 -92
s74.833 -142.666 73.5 -243.999h-645c-2.66699 -24 -4 -41.667 -4 -53c-2 -22.667 -2 -45 0 -67c4 -52 14.333 -101.167 31 -147.5s39.167 -88.166 67.5 -125.499s64.666 -66.833 108.999 -88.5s93.5 -32.5 147.5 -32.5s106.833 11.167 158.5 33.5
s96.834 55.166 135.501 98.499h5c-76 -128.667 -193 -193 -351 -193zM188 595.997l297 0.00292969c22 0 39.667 0.333008 53 1s30.5 2.16699 51.5 4.5s37.833 6.16602 50.5 11.499s25.5 12.666 38.5 21.999s22.667 21.5 29 36.5s9.5 32.833 9.5 53.5
c0 49.333 -20.5 89.666 -61.5 120.999s-90.167 47 -147.5 47c-84.667 0 -155.667 -28 -213 -84s-93 -127 -107 -213zM582 1028l-222 152l84 65l144 -217h-6z" />
    <glyph glyph-name="eacute" unicode="&#xe9;" horiz-adv-x="899" 
d="M483 0c-126.667 0 -226.167 42.3301 -298.5 126.997s-107.833 190.334 -106.5 317.001c0.666992 47.333 6.5 93.333 17.5 138s28.333 87 52 127s52.667 74.833 87 104.5s76.333 53.334 126 71.001s104.167 26.5 163.5 26.5c104 0 181.167 -30.667 231.5 -92
s74.833 -142.666 73.5 -243.999h-645c-2.66699 -24 -4 -41.667 -4 -53c-2 -22.667 -2 -45 0 -67c4 -52 14.333 -101.167 31 -147.5s39.167 -88.166 67.5 -125.499s64.666 -66.833 108.999 -88.5s93.5 -32.5 147.5 -32.5s106.833 11.167 158.5 33.5
s96.834 55.166 135.501 98.499h5c-76 -128.667 -193 -193 -351 -193zM188 595.997l297 0.00292969c22 0 39.667 0.333008 53 1s30.5 2.16699 51.5 4.5s37.833 6.16602 50.5 11.499s25.5 12.666 38.5 21.999s22.667 21.5 29 36.5s9.5 32.833 9.5 53.5
c0 49.333 -20.5 89.666 -61.5 120.999s-90.167 47 -147.5 47c-84.667 0 -155.667 -28 -213 -84s-93 -127 -107 -213zM381 1028h-6l143 217l84 -65z" />
    <glyph glyph-name="ecircumflex" unicode="&#xea;" horiz-adv-x="899" 
d="M483 0c-126.667 0 -226.167 42.3301 -298.5 126.997s-107.833 190.334 -106.5 317.001c0.666992 47.333 6.5 93.333 17.5 138s28.333 87 52 127s52.667 74.833 87 104.5s76.333 53.334 126 71.001s104.167 26.5 163.5 26.5c104 0 181.167 -30.667 231.5 -92
s74.833 -142.666 73.5 -243.999h-645c-2.66699 -24 -4 -41.667 -4 -53c-2 -22.667 -2 -45 0 -67c4 -52 14.333 -101.167 31 -147.5s39.167 -88.166 67.5 -125.499s64.666 -66.833 108.999 -88.5s93.5 -32.5 147.5 -32.5s106.833 11.167 158.5 33.5
s96.834 55.166 135.501 98.499h5c-76 -128.667 -193 -193 -351 -193zM508 892.997c-84.667 0 -155.667 -27.9971 -213 -83.9971s-93 -127 -107 -213h297c22 0 39.667 0.333008 53 1s30.5 2.16699 51.5 4.5s37.833 6.16602 50.5 11.499s25.5 12.666 38.5 21.999
s22.667 21.5 29 36.5s9.5 32.833 9.5 53.5c0 49.333 -20.5 89.666 -61.5 120.999s-90.167 47 -147.5 47zM252 1026l176 219l117 -14l104 -205h-8l-164 156l-223 -156h-2z" />
    <glyph glyph-name="edieresis" unicode="&#xeb;" horiz-adv-x="899" 
d="M483 0c-126.667 0 -226.167 42.3301 -298.5 126.997s-107.833 190.334 -106.5 317.001c0.666992 47.333 6.5 93.333 17.5 138s28.333 87 52 127s52.667 74.833 87 104.5s76.333 53.334 126 71.001s104.167 26.5 163.5 26.5c104 0 181.167 -30.667 231.5 -92
s74.833 -142.666 73.5 -243.999h-645c-2.66699 -24 -4 -41.667 -4 -53c-2 -22.667 -2 -45 0 -67c4 -52 14.333 -101.167 31 -147.5s39.167 -88.166 67.5 -125.499s64.666 -66.833 108.999 -88.5s93.5 -32.5 147.5 -32.5s106.833 11.167 158.5 33.5
s96.834 55.166 135.501 98.499h5c-76 -128.667 -193 -193 -351 -193zM508 892.997c-84.667 0 -155.667 -27.9971 -213 -83.9971s-93 -127 -107 -213h297c22 0 39.667 0.333008 53 1s30.5 2.16699 51.5 4.5s37.833 6.16602 50.5 11.499s25.5 12.666 38.5 21.999
s22.667 21.5 29 36.5s9.5 32.833 9.5 53.5c0 49.333 -20.5 89.666 -61.5 120.999s-90.167 47 -147.5 47zM612 1028c-20.667 0 -38.334 7.33301 -53.001 22s-22 32.667 -22 54c0 20.667 7.33301 38.5 22 53.5s32.334 22.5 53.001 22.5s38.5 -7.5 53.5 -22.5
s22.5 -32.833 22.5 -53.5c0 -21.333 -7.5 -39.333 -22.5 -54s-32.833 -22 -53.5 -22zM315 1028c-20.667 0 -38.334 7.33301 -53.001 22s-22 32.667 -22 54c0 20.667 7.33301 38.5 22 53.5s32.334 22.5 53.001 22.5s38.5 -7.5 53.5 -22.5s22.5 -32.833 22.5 -53.5
c0 -21.333 -7.5 -39.333 -22.5 -54s-32.833 -22 -53.5 -22z" />
    <glyph glyph-name="igrave" unicode="&#xec;" horiz-adv-x="350" 
d="M80 829l0.00195312 4.99609c23.333 4 50.666 14.167 81.999 30.5s54.333 31.833 69 46.5h5l-3 -786c0 -27.333 3.66699 -48.166 11 -62.499s19.666 -29.833 36.999 -46.5v-4h-189v4c17.333 16.667 29.833 32.334 37.5 47.001s11.5 35.334 11.5 62.001v582
c0 60.667 -20.333 101.334 -61 122.001zM252.002 1028l-223 152l84 65l145 -217h-6z" />
    <glyph glyph-name="iacute" unicode="&#xed;" horiz-adv-x="350" 
d="M80 829l0.00195312 4.99609c23.333 4 50.666 14.167 81.999 30.5s54.333 31.833 69 46.5h5l-3 -786c0 -27.333 3.66699 -48.166 11 -62.499s19.666 -29.833 36.999 -46.5v-4h-189v4c17.333 16.667 29.833 32.334 37.5 47.001s11.5 35.334 11.5 62.001v582
c0 60.667 -20.333 101.334 -61 122.001zM102.002 1028l146 217l82 -65l-221 -152h-7z" />
    <glyph glyph-name="icircumflex" unicode="&#xee;" horiz-adv-x="350" 
d="M80 829l0.00195312 4.99609c23.333 4 50.666 14.167 81.999 30.5s54.333 31.833 69 46.5h5l-3 -786c0 -27.333 3.66699 -48.166 11 -62.499s19.666 -29.833 36.999 -46.5v-4h-189v4c17.333 16.667 29.833 32.334 37.5 47.001s11.5 35.334 11.5 62.001v582
c0 60.667 -20.333 101.334 -61 122.001zM-17.998 1026h-5l177 219l116 -14l105 -205h-6l-166 156z" />
    <glyph glyph-name="idieresis" unicode="&#xef;" horiz-adv-x="350" 
d="M80 829l0.00195312 4.99609c23.333 4 50.666 14.167 81.999 30.5s54.333 31.833 69 46.5h5l-3 -786c0 -27.333 3.66699 -48.166 11 -62.499s19.666 -29.833 36.999 -46.5v-4h-189v4c17.333 16.667 29.833 32.334 37.5 47.001s11.5 35.334 11.5 62.001v582
c0 60.667 -20.333 101.334 -61 122.001zM-52.998 1104c0 20.667 7.33301 38.5 22 53.5s32.667 22.5 54 22.5c20.667 0 38.334 -7.5 53.001 -22.5s22 -32.833 22 -53.5c0 -21.333 -7.33301 -39.333 -22 -54s-32.334 -22 -53.001 -22c-21.333 0 -39.333 7.33301 -54 22
s-22 32.667 -22 54zM319.002 1180c20.667 0 38.5 -7.5 53.5 -22.5s22.5 -32.833 22.5 -53.5c0 -21.333 -7.5 -39.333 -22.5 -54s-32.833 -22 -53.5 -22s-38.334 7.33301 -53.001 22s-22 32.667 -22 54c0 20.667 7.33301 38.5 22 53.5s32.334 22.5 53.001 22.5z" />
    <glyph glyph-name="eth" unicode="&#xf0;" horiz-adv-x="983" 
d="M78 430c0 72.667 11.834 139.501 35.501 200.501s55.667 111.833 96 152.5s87 72.167 140 94.5s109.167 33.5 168.5 33.5c78.667 0 145 -15.667 199 -47c-35.333 119.333 -92.666 215 -171.999 287l-338 -139v32l311 130c-91.333 70 -204.666 111.333 -339.999 124l2 13
c155.333 2 288.666 -35.667 399.999 -113l256 105v-33l-228 -92c108 -82.667 186.667 -195.334 236 -338.001c23.333 -64 39.666 -130 48.999 -198s9.66602 -138.5 0.999023 -211.5s-28 -137.833 -58 -194.5c-39.333 -74 -92.333 -132.167 -159 -174.5
s-139.334 -63.5 -218.001 -63.5c-115.333 0 -207.666 38 -276.999 114s-104 182 -104 318zM182.001 500.001c0 -44.667 2.50391 -87.4971 7.50391 -128.497s14.667 -82.833 29 -125.5s32.666 -79.5 54.999 -110.5s52.166 -56.5 89.499 -76.5s80.333 -30 129 -30
c44 0 83.5 7.16699 118.5 21.5s64 33.666 87 57.999s42.167 53.5 57.5 87.5s26.166 69.667 32.499 107s9.5 77 9.5 119c0 44 -2.83301 86.167 -8.5 126.5s-15.834 81.333 -30.501 123s-33.5 77.667 -56.5 108s-53.333 55.166 -91 74.499s-80.834 29 -129.501 29
c-54 0 -101 -10.333 -141 -31s-71.167 -49.334 -93.5 -86.001s-38.666 -77 -48.999 -121s-15.5 -92.333 -15.5 -145z" />
    <glyph glyph-name="ntilde" unicode="&#xf1;" horiz-adv-x="948" 
d="M219 911l3.99707 -0.00292969v-112c51.333 27.333 110.333 52.833 177 76.5s127.334 35.5 182.001 35.5c84.667 0 148.5 -22.333 191.5 -67s64.5 -110.334 64.5 -197.001v-522c0 -27.333 3.5 -48.333 10.5 -63s19.167 -30 36.5 -46v-4h-187v4
c16.667 16 28.334 31.167 35.001 45.5s10 35.5 10 63.5v512c0 78 -19.5 134 -58.5 168s-97.833 51 -176.5 51c-88.667 0 -183.667 -26.667 -285 -80l-2 -651c0 -27.333 3.5 -48.333 10.5 -63s19.167 -30 36.5 -46v-4h-186v4c17.333 16.667 29.833 32.334 37.5 47.001
s11.5 35.334 11.5 62.001v582c0 60.667 -20.333 101.334 -61 122.001v5c22.667 2.66699 49.334 12.334 80.001 29.001s53.667 32.667 69 48zM400.997 1200c11.333 -1.33301 22.666 -4.16602 33.999 -8.49902s26.833 -11.5 46.5 -21.5s32.5 -16.333 38.5 -19
c48 -23.333 89 -35 123 -35c33.333 0 55.833 8.16699 67.5 24.5s19.167 41.833 22.5 76.5l4 2c2 -63.333 -8.66699 -111 -32 -143s-62.333 -48 -117 -48c-31.333 0 -73.666 15.667 -126.999 47c-53.333 30 -93.666 45 -120.999 45c-24 0 -42.333 -5.66699 -55 -17
s-22.334 -32.333 -29.001 -63l-4 -2c-2 55.333 10.833 97.666 38.5 126.999s64.5 41 110.5 35z" />
    <glyph glyph-name="ograve" unicode="&#xf2;" horiz-adv-x="976" 
d="M78 430c0 72.667 11.8311 139.499 35.498 200.499s55.667 111.833 96 152.5s87 72.167 140 94.5s109.167 33.5 168.5 33.5c116 0 208.5 -36.667 277.5 -110s103.5 -178.666 103.5 -315.999c0 -71.333 -12 -137.666 -36 -198.999s-56.167 -112.833 -96.5 -154.5
s-87.166 -74.334 -140.499 -98.001s-109 -35.5 -167 -35.5c-115.333 0 -207.666 38 -276.999 114s-104 182 -104 318zM480.998 882.999c-54 0 -100.996 -10.3301 -140.996 -30.9971s-71.167 -49.334 -93.5 -86.001s-38.666 -77 -48.999 -121s-15.5 -92.333 -15.5 -145
c0 -44.667 2.5 -87.5 7.5 -128.5s14.667 -82.833 29 -125.5s32.666 -79.5 54.999 -110.5s52.166 -56.5 89.499 -76.5s80.333 -30 129 -30c44 0 83.5 7.16699 118.5 21.5s64 33.666 87 57.999s42.167 53.5 57.5 87.5s26.166 69.667 32.499 107s9.5 77 9.5 119
c0 44 -2.83301 86.167 -8.5 126.5s-15.834 81.333 -30.501 123s-33.5 77.667 -56.5 108s-53.333 55.166 -91 74.499s-80.834 29 -129.501 29zM332.002 1180l84 65l143 -217h-6z" />
    <glyph glyph-name="oacute" unicode="&#xf3;" horiz-adv-x="976" 
d="M78 430c0 72.667 11.8311 139.499 35.498 200.499s55.667 111.833 96 152.5s87 72.167 140 94.5s109.167 33.5 168.5 33.5c116 0 208.5 -36.667 277.5 -110s103.5 -178.666 103.5 -315.999c0 -71.333 -12 -137.666 -36 -198.999s-56.167 -112.833 -96.5 -154.5
s-87.166 -74.334 -140.499 -98.001s-109 -35.5 -167 -35.5c-115.333 0 -207.666 38 -276.999 114s-104 182 -104 318zM480.998 882.999c-54 0 -100.996 -10.3301 -140.996 -30.9971s-71.167 -49.334 -93.5 -86.001s-38.666 -77 -48.999 -121s-15.5 -92.333 -15.5 -145
c0 -44.667 2.5 -87.5 7.5 -128.5s14.667 -82.833 29 -125.5s32.666 -79.5 54.999 -110.5s52.166 -56.5 89.499 -76.5s80.333 -30 129 -30c44 0 83.5 7.16699 118.5 21.5s64 33.666 87 57.999s42.167 53.5 57.5 87.5s26.166 69.667 32.499 107s9.5 77 9.5 119
c0 44 -2.83301 86.167 -8.5 126.5s-15.834 81.333 -30.501 123s-33.5 77.667 -56.5 108s-53.333 55.166 -91 74.499s-80.834 29 -129.501 29zM375.002 1028l143 217l84 -65l-221 -152h-6z" />
    <glyph glyph-name="ocircumflex" unicode="&#xf4;" horiz-adv-x="976" 
d="M78 430c0 72.667 11.8311 139.499 35.498 200.499s55.667 111.833 96 152.5s87 72.167 140 94.5s109.167 33.5 168.5 33.5c116 0 208.5 -36.667 277.5 -110s103.5 -178.666 103.5 -315.999c0 -71.333 -12 -137.666 -36 -198.999s-56.167 -112.833 -96.5 -154.5
s-87.166 -74.334 -140.499 -98.001s-109 -35.5 -167 -35.5c-115.333 0 -207.666 38 -276.999 114s-104 182 -104 318zM181.998 499.999c0 -44.667 2.50391 -87.4971 7.50391 -128.497s14.667 -82.833 29 -125.5s32.666 -79.5 54.999 -110.5s52.166 -56.5 89.499 -76.5
s80.333 -30 129 -30c44 0 83.5 7.16699 118.5 21.5s64 33.666 87 57.999s42.167 53.5 57.5 87.5s26.166 69.667 32.499 107s9.5 77 9.5 119c0 44 -2.83301 86.167 -8.5 126.5s-15.834 81.333 -30.501 123s-33.5 77.667 -56.5 108s-53.333 55.166 -91 74.499
s-80.834 29 -129.501 29c-54 0 -101 -10.333 -141 -31s-71.167 -49.334 -93.5 -86.001s-38.666 -77 -48.999 -121s-15.5 -92.333 -15.5 -145zM291.002 1026l176 219l117 -14l104 -205h-8l-164 156l-223 -156h-2z" />
    <glyph glyph-name="otilde" unicode="&#xf5;" horiz-adv-x="976" 
d="M78 430c0 72.667 11.8311 139.499 35.498 200.499s55.667 111.833 96 152.5s87 72.167 140 94.5s109.167 33.5 168.5 33.5c116 0 208.5 -36.667 277.5 -110s103.5 -178.666 103.5 -315.999c0 -71.333 -12 -137.666 -36 -198.999s-56.167 -112.833 -96.5 -154.5
s-87.166 -74.334 -140.499 -98.001s-109 -35.5 -167 -35.5c-115.333 0 -207.666 38 -276.999 114s-104 182 -104 318zM480.998 882.999c-54 0 -100.996 -10.3301 -140.996 -30.9971s-71.167 -49.334 -93.5 -86.001s-38.666 -77 -48.999 -121s-15.5 -92.333 -15.5 -145
c0 -44.667 2.5 -87.5 7.5 -128.5s14.667 -82.833 29 -125.5s32.666 -79.5 54.999 -110.5s52.166 -56.5 89.499 -76.5s80.333 -30 129 -30c44 0 83.5 7.16699 118.5 21.5s64 33.666 87 57.999s42.167 53.5 57.5 87.5s26.166 69.667 32.499 107s9.5 77 9.5 119
c0 44 -2.83301 86.167 -8.5 126.5s-15.834 81.333 -30.501 123s-33.5 77.667 -56.5 108s-53.333 55.166 -91 74.499s-80.834 29 -129.501 29zM246.002 1038c-2 55.333 10.833 97.666 38.5 126.999s64.5 41 110.5 35c11.333 -1.33301 22.666 -4.16602 33.999 -8.49902
s26.833 -11.5 46.5 -21.5s32.5 -16.333 38.5 -19c48 -23.333 89 -35 123 -35c33.333 0 55.833 8.16699 67.5 24.5s19.167 41.833 22.5 76.5l4 2c2 -63.333 -8.66699 -111 -32 -143s-62.333 -48 -117 -48c-31.333 0 -73.666 15.667 -126.999 47
c-53.333 30 -93.666 45 -120.999 45c-24 0 -42.333 -5.66699 -55 -17s-22.334 -32.333 -29.001 -63z" />
    <glyph glyph-name="odieresis" unicode="&#xf6;" horiz-adv-x="976" 
d="M78 430c0 72.667 11.8311 139.499 35.498 200.499s55.667 111.833 96 152.5s87 72.167 140 94.5s109.167 33.5 168.5 33.5c116 0 208.5 -36.667 277.5 -110s103.5 -178.666 103.5 -315.999c0 -71.333 -12 -137.666 -36 -198.999s-56.167 -112.833 -96.5 -154.5
s-87.166 -74.334 -140.499 -98.001s-109 -35.5 -167 -35.5c-115.333 0 -207.666 38 -276.999 114s-104 182 -104 318zM480.998 882.999c-54 0 -100.996 -10.3301 -140.996 -30.9971s-71.167 -49.334 -93.5 -86.001s-38.666 -77 -48.999 -121s-15.5 -92.333 -15.5 -145
c0 -44.667 2.5 -87.5 7.5 -128.5s14.667 -82.833 29 -125.5s32.666 -79.5 54.999 -110.5s52.166 -56.5 89.499 -76.5s80.333 -30 129 -30c44 0 83.5 7.16699 118.5 21.5s64 33.666 87 57.999s42.167 53.5 57.5 87.5s26.166 69.667 32.499 107s9.5 77 9.5 119
c0 44 -2.83301 86.167 -8.5 126.5s-15.834 81.333 -30.501 123s-33.5 77.667 -56.5 108s-53.333 55.166 -91 74.499s-80.834 29 -129.501 29zM340.002 1032c-20.667 0 -38.5 7.33301 -53.5 22s-22.5 32.667 -22.5 54c0 20.667 7.5 38.5 22.5 53.5s32.833 22.5 53.5 22.5
c21.333 0 39.333 -7.5 54 -22.5s22 -32.833 22 -53.5c0 -21.333 -7.33301 -39.333 -22 -54s-32.667 -22 -54 -22zM637.002 1032c-20.667 0 -38.5 7.33301 -53.5 22s-22.5 32.667 -22.5 54c0 20.667 7.5 38.5 22.5 53.5s32.833 22.5 53.5 22.5c21.333 0 39.333 -7.5 54 -22.5
s22 -32.833 22 -53.5c0 -21.333 -7.33301 -39.333 -22 -54s-32.667 -22 -54 -22z" />
    <glyph glyph-name="divide" unicode="&#xf7;" horiz-adv-x="538" 
d="M279 797c-20.667 0 -38.167 7.16699 -52.5 21.5s-21.5 32.166 -21.5 53.499c0 20.667 7.16699 38.5 21.5 53.5s31.833 22.5 52.5 22.5c21.333 0 39.166 -7.5 53.499 -22.5s21.5 -32.833 21.5 -53.5c0 -21.333 -7.16699 -39.166 -21.5 -53.499
s-32.166 -21.5 -53.499 -21.5zM205 446c0 20.667 7.16699 38.5 21.5 53.5s31.833 22.5 52.5 22.5c21.333 0 39.166 -7.5 53.499 -22.5s21.5 -32.833 21.5 -53.5c0 -21.333 -7.16699 -39.166 -21.5 -53.499s-32.166 -21.5 -53.499 -21.5
c-20.667 0 -38.167 7.16699 -52.5 21.5s-21.5 32.166 -21.5 53.499zM88 684h377v-31h-377v31z" />
    <glyph glyph-name="oslash" unicode="&#xf8;" horiz-adv-x="976" 
d="M78 430c0 72.667 11.832 139.5 35.499 200.5s55.667 111.833 96 152.5s87 72.167 140 94.5s109.167 33.5 168.5 33.5c38.667 0 75.667 -4 111 -12l223 565h31l-226 -573c76 -26 135.333 -73.5 178 -142.5s64 -156.833 64 -263.5c0 -71.333 -12 -137.666 -36 -198.999
s-56.167 -112.833 -96.5 -154.5s-87.166 -74.334 -140.499 -98.001s-109 -35.5 -167 -35.5c-50 0 -97.333 8.33301 -142 25l-77 -199h-33l82 209c-66 30 -117.667 79 -155 147s-56 151.333 -56 250zM337.999 74c42.667 -30 94.001 -45 154.001 -45
c44 0 83.5 7.16699 118.5 21.5s64 33.666 87 57.999s42.167 53.5 57.5 87.5s26.166 69.667 32.499 107s9.5 77 9.5 119c0 56 -4.33301 108.833 -13 158.5s-25.5 98.834 -50.5 147.501s-57.167 86 -96.5 112zM481 883c-54 0 -101.001 -10.332 -141.001 -30.999
s-71.167 -49.334 -93.5 -86.001s-38.666 -77 -48.999 -121s-15.5 -92.333 -15.5 -145c0 -194.667 43.667 -330.667 131 -408l299 762c-40 19.333 -83.667 29 -131 29z" />
    <glyph glyph-name="ugrave" unicode="&#xf9;" 
d="M209 911h3.99707v-637c0 -150 78.667 -223 236 -219c71.333 3.33301 151 31.333 239 84v568c0 60 -20.333 100.667 -61 122v5c22.667 2.66699 49.834 12.5 81.501 29.5s54.834 32.833 69.501 47.5h2v-778c0 -38 21.333 -70 64 -96v-4l-146 -33l-10 84v29
c-127.333 -75.333 -231.666 -113 -312.999 -113c-169.333 0 -254 88 -254 264v443c0 60 -20.667 100.667 -62 122v5c22.667 2.66699 49.667 12.5 81 29.5s54.333 32.833 69 47.5zM497.997 1028l-222 152l84 65l144 -217h-6z" />
    <glyph glyph-name="uacute" unicode="&#xfa;" 
d="M209 911h3.99707v-637c0 -150 78.667 -223 236 -219c71.333 3.33301 151 31.333 239 84v568c0 60 -20.333 100.667 -61 122v5c22.667 2.66699 49.834 12.5 81.501 29.5s54.834 32.833 69.501 47.5h2v-778c0 -38 21.333 -70 64 -96v-4l-146 -33l-10 84v29
c-127.333 -75.333 -231.666 -113 -312.999 -113c-169.333 0 -254 88 -254 264v443c0 60 -20.667 100.667 -62 122v5c22.667 2.66699 49.667 12.5 81 29.5s54.333 32.833 69 47.5zM366.997 1028h-7l146 217l82 -65z" />
    <glyph glyph-name="ucircumflex" unicode="&#xfb;" 
d="M209 911h3.99707v-637c0 -150 78.667 -223 236 -219c71.333 3.33301 151 31.333 239 84v568c0 60 -20.333 100.667 -61 122v5c22.667 2.66699 49.834 12.5 81.501 29.5s54.834 32.833 69.501 47.5h2v-778c0 -38 21.333 -70 64 -96v-4l-146 -33l-10 84v29
c-127.333 -75.333 -231.666 -113 -312.999 -113c-169.333 0 -254 88 -254 264v443c0 60 -20.667 100.667 -62 122v5c22.667 2.66699 49.667 12.5 81 29.5s54.333 32.833 69 47.5zM267.997 1026h-4l176 219l117 -14l105 -205h-9l-164 156z" />
    <glyph glyph-name="udieresis" unicode="&#xfc;" 
d="M209 911h3.99707v-637c0 -150 78.667 -223 236 -219c71.333 3.33301 151 31.333 239 84v568c0 60 -20.333 100.667 -61 122v5c22.667 2.66699 49.834 12.5 81.501 29.5s54.834 32.833 69.501 47.5h2v-778c0 -38 21.333 -70 64 -96v-4l-146 -33l-10 84v29
c-127.333 -75.333 -231.666 -113 -312.999 -113c-169.333 0 -254 88 -254 264v443c0 60 -20.667 100.667 -62 122v5c22.667 2.66699 49.667 12.5 81 29.5s54.333 32.833 69 47.5zM290.997 1184c20.667 0 38.167 -7.5 52.5 -22.5s21.5 -32.833 21.5 -53.5
c0 -21.333 -7.16699 -39.333 -21.5 -54s-31.833 -22 -52.5 -22c-21.333 0 -39.333 7.33301 -54 22s-22 32.667 -22 54c0 20.667 7.33301 38.5 22 53.5s32.667 22.5 54 22.5zM587.997 1184c20.667 0 38.167 -7.5 52.5 -22.5s21.5 -32.833 21.5 -53.5
c0 -21.333 -7.16699 -39.333 -21.5 -54s-31.833 -22 -52.5 -22c-21.333 0 -39.333 7.33301 -54 22s-22 32.667 -22 54c0 20.667 7.33301 38.5 22 53.5s32.667 22.5 54 22.5z" />
    <glyph glyph-name="yacute" unicode="&#xfd;" horiz-adv-x="942" 
d="M59 893v4.00195h172v-4c-11.333 -28.667 -16.666 -49.334 -15.999 -62.001s5.33398 -30.334 14.001 -53.001l285 -667l205 505c10.667 26.667 19.667 54.834 27 84.501s11.166 63 11.499 100s-5.83398 67.833 -18.501 92.5v4h146v-4
c-24 -34.667 -55.333 -92.334 -94 -173.001s-62.667 -133.667 -72 -159l-227 -561c-87.333 -220 -199.333 -355.333 -336 -406l-90 146l2 4c35.333 -10.667 69.333 -16 102 -16c112 0 214.333 94.667 307 284h-20l-330 774c-16 37.333 -38.667 73 -68 107zM408 1028h-7
l146 217l82 -65z" />
    <glyph glyph-name="thorn" unicode="&#xfe;" horiz-adv-x="630" 
d="M90 1423h92v-637c20.667 17.333 38 31.333 52 42s33.833 23.5 59.5 38.5s53.667 26.167 84 33.5s62.833 11 97.5 11c109.333 0 194.333 -40.5 255 -121.5s91 -189.833 91 -326.5c0 -62 -7.83301 -119.833 -23.5 -173.5s-39.5 -102.5 -71.5 -146.5
s-75.833 -78.833 -131.5 -104.5s-120.167 -38.5 -193.5 -38.5c-58.667 0 -104.167 6.16699 -136.5 18.5s-60.5 30.833 -84.5 55.5v-480h-90v1829zM180 758v-593.999c11.333 -34.667 29.5 -63.334 54.5 -86.001s51.333 -38 79 -46s57.5 -12 89.5 -12
c99.333 0 176.166 37.5 230.499 112.5s81.5 175.5 81.5 301.5c0 40.667 -2.83301 80.167 -8.5 118.5s-15.667 77 -30 116s-32.333 73 -54 102s-50 52.5 -85 70.5s-74.833 27 -119.5 27c-77.333 0 -156.666 -36.667 -237.999 -110z" />
    <glyph glyph-name="ydieresis" unicode="&#xff;" horiz-adv-x="942" 
d="M127 786c-16 37.333 -38.667 73.002 -68 107.002v4h172v-4c-11.333 -28.667 -16.666 -49.334 -15.999 -62.001s5.33398 -30.334 14.001 -53.001l285 -667l205 505c10.667 26.667 19.667 54.834 27 84.501s11.166 63 11.499 100s-5.83398 67.833 -18.501 92.5v4h146v-4
c-24 -34.667 -55.333 -92.334 -94 -173.001s-62.667 -133.667 -72 -159l-227 -561c-87.333 -220 -199.333 -355.333 -336 -406l-90 146l2 4c35.333 -10.667 69.333 -16 102 -16c112 0 214.333 94.667 307 284h-20zM555 1104c0 20.667 7.5 38.5 22.5 53.5
s32.833 22.5 53.5 22.5s38.5 -7.5 53.5 -22.5s22.5 -32.833 22.5 -53.5c0 -21.333 -7.5 -39.333 -22.5 -54s-32.833 -22 -53.5 -22s-38.5 7.33301 -53.5 22s-22.5 32.667 -22.5 54zM334 1028c-20.667 0 -38.5 7.33301 -53.5 22s-22.5 32.667 -22.5 54
c0 20.667 7.5 38.5 22.5 53.5s32.833 22.5 53.5 22.5s38.5 -7.5 53.5 -22.5s22.5 -32.833 22.5 -53.5c0 -21.333 -7.5 -39.333 -22.5 -54s-32.833 -22 -53.5 -22z" />
    <glyph glyph-name="Amacron" unicode="&#x100;" horiz-adv-x="1122" 
d="M47 12l0.000976562 4.00391c20 24.667 35.833 49.167 47.5 73.5s27.167 63.5 46.5 117.5l375 1026c4 10 2.5 25.667 -4.5 47s-17.167 41.666 -30.5 60.999v5h111l405 -1190c17.333 -56.667 42.666 -103.334 75.999 -140.001v-4h-188v4c24 39.333 24 94.666 0 165.999
l-105 312h-508l-104 -287c-12.667 -38.667 -15.5 -74.834 -8.5 -108.501s22.167 -61.167 45.5 -82.5v-4h-158zM281.001 518.004h491l-235 703zM725.001 1423h-369v31h369v-31z" />
    <glyph glyph-name="amacron" unicode="&#x101;" horiz-adv-x="888" 
d="M293 0c-70 0 -126.836 17.999 -170.503 53.999s-65.5 88.333 -65.5 157c0 68 21.833 121.667 65.5 161s105.834 71 186.501 95c79.333 22.667 187.333 43.667 324 63v134c0 66.667 -17.667 121.334 -53 164.001s-86 63.667 -152 63c-62 -2 -117.5 -22.667 -166.5 -62
s-82.833 -86.333 -101.5 -141h-4l-35 150c76 48.667 177.667 73 305 73c199.333 0 299 -90.667 299 -272v-510c0 -26 8 -45.167 24 -57.5s36 -18.5 60 -18.5c20.667 0 39.667 4.33301 57 13l2 -5c-11.333 -14.667 -30.166 -28.5 -56.499 -41.5s-53.166 -19.5 -80.499 -19.5
c-30.667 0 -54 10.667 -70 32s-24.667 43.333 -26 66c-102 -65.333 -216 -98 -342 -98zM345.997 433.999c-122.667 -45.333 -183.999 -114.333 -183.999 -207c0 -62 18.667 -109.167 56 -141.5s87.666 -48.5 150.999 -48.5c80.667 0 168.667 28 264 84v389
c-120 -22.667 -215.667 -48 -287 -76zM716.998 1028h-555v31h555v-31z" />
    <glyph glyph-name="Abreve" unicode="&#x102;" horiz-adv-x="1122" 
d="M47 12l0.000976562 4.00391c20 24.667 35.833 49.167 47.5 73.5s27.167 63.5 46.5 117.5l375 1026c4 10 2.5 25.667 -4.5 47s-17.167 41.666 -30.5 60.999v5h111l405 -1190c17.333 -56.667 42.666 -103.334 75.999 -140.001v-4h-188v4c24 39.333 24 94.666 0 165.999
l-105 312h-508l-104 -287c-12.667 -38.667 -15.5 -74.834 -8.5 -108.501s22.167 -61.167 45.5 -82.5v-4h-158zM537.001 1221l-256 -703h491zM567.001 1423c-76 0 -130.668 19.165 -164.001 57.498s-48.333 87.5 -45 147.5h4c9.33301 -26 21.5 -47.667 36.5 -65
s32.167 -30 51.5 -38s37.833 -13.333 55.5 -16s38.167 -4 61.5 -4c24.667 0 45.834 1.16699 63.501 3.5s36.667 7.33301 57 15s37.5 20.334 51.5 38.001s25 39.834 33 66.501h4c-2 -30.667 -6 -57 -12 -79s-16.167 -43.167 -30.5 -63.5s-35.5 -35.833 -63.5 -46.5
s-62.333 -16 -103 -16z" />
    <glyph glyph-name="abreve" unicode="&#x103;" horiz-adv-x="888" 
d="M57 211c0 68 21.8301 121.666 65.4971 160.999s105.834 71 186.501 95c79.333 22.667 187.333 43.667 324 63v134c0 66.667 -17.667 121.334 -53 164.001s-86 63.667 -152 63c-62 -2 -117.5 -22.667 -166.5 -62s-82.833 -86.333 -101.5 -141h-4l-35 150
c76 48.667 177.667 73 305 73c199.333 0 299 -90.667 299 -272v-510c0 -26 8 -45.167 24 -57.5s36 -18.5 60 -18.5c20.667 0 39.667 4.33301 57 13l2 -5c-11.333 -14.667 -30.166 -28.5 -56.499 -41.5s-53.166 -19.5 -80.499 -19.5c-30.667 0 -54 10.667 -70 32
s-24.667 43.333 -26 66c-102 -65.333 -216 -98 -342 -98c-70 0 -126.833 18 -170.5 54s-65.5 88.333 -65.5 157zM345.997 433.999c-122.667 -45.333 -183.999 -114.333 -183.999 -207c0 -62 18.667 -109.167 56 -141.5s87.666 -48.5 150.999 -48.5
c80.667 0 168.667 28 264 84v389c-120 -22.667 -215.667 -48 -287 -76zM419.998 1028c-76 0 -130.663 19.5 -163.996 58.5s-48.333 88.5 -45 148.5h4c12 -34 30 -60.833 54 -80.5s47.5 -32 70.5 -37s49.833 -7.5 80.5 -7.5c25.333 0 46.666 1.16699 63.999 3.5
s36.166 7.5 56.499 15.5s37.5 20.833 51.5 38.5s25 40.167 33 67.5h6c-1.33301 -24 -3.83301 -45.167 -7.5 -63.5s-10.334 -37 -20.001 -56s-21.834 -34.5 -36.501 -46.5s-34.5 -21.833 -59.5 -29.5s-54.167 -11.5 -87.5 -11.5z" />
    <glyph glyph-name="Aogonek" unicode="&#x104;" horiz-adv-x="1122" 
d="M47 16c20 24.667 35.833 49.1689 47.5 73.502s27.167 63.5 46.5 117.5l375 1026c4 10 2.5 25.667 -4.5 47s-17.167 41.666 -30.5 60.999v5h111l405 -1190c17.333 -56.667 42.666 -103.334 75.999 -140.001v-4h-80c-35.333 -35.333 -65 -77.166 -89 -125.499
s-36 -95.166 -36 -140.499c0 -80 38.333 -123 115 -129c22.667 -1.33301 47 3 73 13s48.667 25.333 68 46h6c-37.333 -70.667 -98 -106 -182 -106c-50 0 -89.833 14.667 -119.5 44s-44.5 69.333 -44.5 120c0 56 18.333 108 55 156s81.334 88.667 134.001 122h-88v4
c24 39.333 24 94.666 0 165.999l-105 312h-508l-104 -287c-12.667 -38.667 -15.5 -74.834 -8.5 -108.501s22.167 -61.167 45.5 -82.5v-4h-158v4zM281 518.002h491l-235 703z" />
    <glyph glyph-name="aogonek" unicode="&#x105;" horiz-adv-x="911" 
d="M293 0c-70 0 -126.833 17.9971 -170.5 53.9971s-65.5 88.333 -65.5 157c0 68 21.833 121.667 65.5 161s105.834 71 186.501 95c79.333 22.667 187.333 43.667 324 63v134c0 66.667 -17.667 121.334 -53 164.001s-86 63.667 -152 63c-62 -2 -117.5 -22.667 -166.5 -62
s-82.833 -86.333 -101.5 -141h-4l-35 150c76 48.667 177.667 73 305 73c199.333 0 299 -90.667 299 -272v-510c0 -26 8 -45.167 24 -57.5s36 -18.5 60 -18.5c20.667 0 39.667 4.33301 57 13l2 -5c-10 -13.333 -27.167 -26.333 -51.5 -39s-49.5 -20 -75.5 -22
c-32 -36 -58.667 -76.5 -80 -121.5s-32 -89.167 -32 -132.5c0 -80 38 -123 114 -129c24 -1.33301 49.167 3 75.5 13s49.166 25.333 68.499 46h4c-37.333 -70.667 -97.333 -106 -180 -106c-50.667 0 -91 14.667 -121 44s-45 69.333 -45 120
c0 52.667 16.5 101.834 49.5 147.501s73.833 85.834 122.5 120.501c-26 3.33301 -45.833 15 -59.5 35s-21.167 40.333 -22.5 61c-102 -65.333 -216 -98 -342 -98zM162 226.997c0 -62 18.668 -109.167 56.001 -141.5s87.666 -48.5 150.999 -48.5c80.667 0 168.667 28 264 84
v389c-120 -22.667 -215.667 -48 -287 -76c-122.667 -45.333 -184 -114.333 -184 -207z" />
    <glyph glyph-name="Cacute" unicode="&#x106;" horiz-adv-x="1247" 
d="M100 711c4.66699 132 36.333 247.67 95 347.003s136.167 174.5 232.5 225.5s204.5 76.5 324.5 76.5c86.667 0 158.167 -10.167 214.5 -30.5s110.166 -51.833 161.499 -94.5l-75 -236h-4c2 98.667 -25.167 179 -81.5 241s-133.166 93 -230.499 93
c-86.667 0 -163.5 -14.5 -230.5 -43.5s-121.5 -69.833 -163.5 -122.5s-74.5 -113.834 -97.5 -183.501s-36.5 -147.5 -40.5 -233.5c-4 -100.667 6.33301 -196.834 31 -288.501s65.334 -169.167 122.001 -232.5c99.333 -110.667 228.333 -166 387 -166
c88 0 174.333 24.167 259 72.5s148.667 117.833 192 208.5l6 -4c-40 -104.667 -102.833 -187.5 -188.5 -248.5s-187.834 -91.5 -306.501 -91.5c-84 0 -160.333 12.167 -229 36.5s-126.667 57.833 -174 100.5s-87 94 -119 154s-54.833 125.167 -68.5 195.5
s-19.167 145.166 -16.5 224.499zM693.999 1423h-6l146 217l81 -65z" />
    <glyph glyph-name="cacute" unicode="&#x107;" 
d="M489 0c-127.333 0 -227.332 42.166 -299.999 126.499s-108.334 190.166 -107.001 317.499c0.666992 47.333 6.5 93.333 17.5 138s28.5 87 52.5 127s53 74.833 87 104.5s76 53.334 126 71.001s105 26.5 165 26.5c91.333 0 174.666 -24.333 249.999 -73l-57 -181l-4 2
c-8 76 -33.5 133 -76.5 171s-100.167 57 -171.5 57c-60 0 -113.167 -20.5 -159.5 -61.5s-80.666 -94.667 -102.999 -161s-31.166 -137.5 -26.499 -213.5c4 -52 14.333 -101.167 31 -147.5s39.167 -88.166 67.5 -125.499s64.666 -66.833 108.999 -88.5
s93.5 -32.5 147.5 -32.5s107.667 11.667 161 35s99.333 57 138 101h4c-76 -128.667 -193 -193 -351 -193zM459.001 1028h-6l145 217l84 -65z" />
    <glyph glyph-name="Ccircumflex" unicode="&#x108;" horiz-adv-x="1247" 
d="M100 711c4.66699 132 36.333 247.67 95 347.003s136.167 174.5 232.5 225.5s204.5 76.5 324.5 76.5c86.667 0 158.167 -10.167 214.5 -30.5s110.166 -51.833 161.499 -94.5l-75 -236h-4c2 98.667 -25.167 179 -81.5 241s-133.166 93 -230.499 93
c-86.667 0 -163.5 -14.5 -230.5 -43.5s-121.5 -69.833 -163.5 -122.5s-74.5 -113.834 -97.5 -183.501s-36.5 -147.5 -40.5 -233.5c-4 -100.667 6.33301 -196.834 31 -288.501s65.334 -169.167 122.001 -232.5c99.333 -110.667 228.333 -166 387 -166
c88 0 174.333 24.167 259 72.5s148.667 117.833 192 208.5l6 -4c-40 -104.667 -102.833 -187.5 -188.5 -248.5s-187.834 -91.5 -306.501 -91.5c-84 0 -160.333 12.167 -229 36.5s-126.667 57.833 -174 100.5s-87 94 -119 154s-54.833 125.167 -68.5 195.5
s-19.167 145.166 -16.5 224.499zM531.999 1423h-20l176 219l119 -14l102 -205h-12l-158 156z" />
    <glyph glyph-name="ccircumflex" unicode="&#x109;" 
d="M489 0c-127.333 0 -227.332 42.166 -299.999 126.499s-108.334 190.166 -107.001 317.499c0.666992 47.333 6.5 93.333 17.5 138s28.5 87 52.5 127s53 74.833 87 104.5s76 53.334 126 71.001s105 26.5 165 26.5c91.333 0 174.666 -24.333 249.999 -73l-57 -181l-4 2
c-8 76 -33.5 133 -76.5 171s-100.167 57 -171.5 57c-60 0 -113.167 -20.5 -159.5 -61.5s-80.666 -94.667 -102.999 -161s-31.166 -137.5 -26.499 -213.5c4 -52 14.333 -101.167 31 -147.5s39.167 -88.166 67.5 -125.499s64.666 -66.833 108.999 -88.5
s93.5 -32.5 147.5 -32.5s107.667 11.667 161 35s99.333 57 138 101h4c-76 -128.667 -193 -193 -351 -193zM274.001 1026l177 219l116 -14l105 -205h-6l-166 156l-221 -156h-5z" />
    <glyph glyph-name="Cdotaccent" unicode="&#x10a;" horiz-adv-x="1247" 
d="M100 711c4.66699 132 36.333 247.67 95 347.003s136.167 174.5 232.5 225.5s204.5 76.5 324.5 76.5c86.667 0 158.167 -10.167 214.5 -30.5s110.166 -51.833 161.499 -94.5l-75 -236h-4c2 98.667 -25.167 179 -81.5 241s-133.166 93 -230.499 93
c-86.667 0 -163.5 -14.5 -230.5 -43.5s-121.5 -69.833 -163.5 -122.5s-74.5 -113.834 -97.5 -183.501s-36.5 -147.5 -40.5 -233.5c-4 -100.667 6.33301 -196.834 31 -288.501s65.334 -169.167 122.001 -232.5c99.333 -110.667 228.333 -166 387 -166
c88 0 174.333 24.167 259 72.5s148.667 117.833 192 208.5l6 -4c-40 -104.667 -102.833 -187.5 -188.5 -248.5s-187.834 -91.5 -306.501 -91.5c-84 0 -160.333 12.167 -229 36.5s-126.667 57.833 -174 100.5s-87 94 -119 154s-54.833 125.167 -68.5 195.5
s-19.167 145.166 -16.5 224.499zM665.999 1499c0 20.667 7.16699 38.5 21.5 53.5s31.5 22.5 51.5 22.5c21.333 0 39.333 -7.5 54 -22.5s22 -32.833 22 -53.5c0 -21.333 -7.33301 -39.333 -22 -54s-32.667 -22 -54 -22c-20.667 0 -38 7.33301 -52 22s-21 32.667 -21 54z" />
    <glyph glyph-name="cdotaccent" unicode="&#x10b;" 
d="M489 0c-127.333 0 -227.332 42.166 -299.999 126.499s-108.334 190.166 -107.001 317.499c0.666992 47.333 6.5 93.333 17.5 138s28.5 87 52.5 127s53 74.833 87 104.5s76 53.334 126 71.001s105 26.5 165 26.5c91.333 0 174.666 -24.333 249.999 -73l-57 -181l-4 2
c-8 76 -33.5 133 -76.5 171s-100.167 57 -171.5 57c-60 0 -113.167 -20.5 -159.5 -61.5s-80.666 -94.667 -102.999 -161s-31.166 -137.5 -26.499 -213.5c4 -52 14.333 -101.167 31 -147.5s39.167 -88.166 67.5 -125.499s64.666 -66.833 108.999 -88.5
s93.5 -32.5 147.5 -32.5s107.667 11.667 161 35s99.333 57 138 101h4c-76 -128.667 -193 -193 -351 -193zM444.001 1104c0 20.667 7.5 38.5 22.5 53.5s32.833 22.5 53.5 22.5c21.333 0 39.333 -7.5 54 -22.5s22 -32.833 22 -53.5c0 -21.333 -7.33301 -39.333 -22 -54
s-32.667 -22 -54 -22c-20.667 0 -38.5 7.33301 -53.5 22s-22.5 32.667 -22.5 54z" />
    <glyph glyph-name="Ccaron" unicode="&#x10c;" horiz-adv-x="1247" 
d="M100 711c4.66699 132 36.333 247.67 95 347.003s136.167 174.5 232.5 225.5s204.5 76.5 324.5 76.5c86.667 0 158.167 -10.167 214.5 -30.5s110.166 -51.833 161.499 -94.5l-75 -236h-4c2 98.667 -25.167 179 -81.5 241s-133.166 93 -230.499 93
c-86.667 0 -163.5 -14.5 -230.5 -43.5s-121.5 -69.833 -163.5 -122.5s-74.5 -113.834 -97.5 -183.501s-36.5 -147.5 -40.5 -233.5c-4 -100.667 6.33301 -196.834 31 -288.501s65.334 -169.167 122.001 -232.5c99.333 -110.667 228.333 -166 387 -166
c88 0 174.333 24.167 259 72.5s148.667 117.833 192 208.5l6 -4c-40 -104.667 -102.833 -187.5 -188.5 -248.5s-187.834 -91.5 -306.501 -91.5c-84 0 -160.333 12.167 -229 36.5s-126.667 57.833 -174 100.5s-87 94 -119 154s-54.833 125.167 -68.5 195.5
s-19.167 145.166 -16.5 224.499zM552.999 1642h12l160 -155l207 155h18l-176 -219l-117 17z" />
    <glyph glyph-name="ccaron" unicode="&#x10d;" 
d="M489 0c-127.333 0 -227.332 42.166 -299.999 126.499s-108.334 190.166 -107.001 317.499c0.666992 47.333 6.5 93.333 17.5 138s28.5 87 52.5 127s53 74.833 87 104.5s76 53.334 126 71.001s105 26.5 165 26.5c91.333 0 174.666 -24.333 249.999 -73l-57 -181l-4 2
c-8 76 -33.5 133 -76.5 171s-100.167 57 -171.5 57c-60 0 -113.167 -20.5 -159.5 -61.5s-80.666 -94.667 -102.999 -161s-31.166 -137.5 -26.499 -213.5c4 -52 14.333 -101.167 31 -147.5s39.167 -88.166 67.5 -125.499s64.666 -66.833 108.999 -88.5
s93.5 -32.5 147.5 -32.5s107.667 11.667 161 35s99.333 57 138 101h4c-76 -128.667 -193 -193 -351 -193zM326.001 1247h6l166 -155l221 155h4l-176 -219l-117 14z" />
    <glyph glyph-name="Dcaron" unicode="&#x10e;" horiz-adv-x="1183" 
d="M80 12v4c24.667 20 40.334 41.833 47.001 65.5s10 65.5 10 125.5v940c0 60 -3.33301 102.333 -10 127s-22.334 47 -47.001 67v5h395c194 0 343.833 -57.5 449.5 -172.5s158.5 -282.167 158.5 -501.5c0 -218 -52.5 -382.5 -157.5 -493.5s-255.167 -166.5 -450.5 -166.5
h-395zM406 1321h-173v-1284h173c379.333 0 569 213 569 639c0 430 -189.667 645 -569 645zM362 1642h15l158 -155l206 155h19l-176 -219l-117 17z" />
    <glyph glyph-name="dcaron" unicode="&#x10f;" horiz-adv-x="1349" 
d="M510 911c88.667 0 159.002 -19.668 211.002 -59.001v367c0 66.667 -24 107.334 -72 122.001v5c22.667 2.66699 50.667 12.5 84 29.5s58.666 32.833 75.999 47.5h6v-1319l39 -77v-4l-127 -23h-6v119c-33.333 -36 -74.5 -64.833 -123.5 -86.5s-102.833 -32.5 -161.5 -32.5
c-111.333 -0 -198.5 40.833 -261.5 122.5s-94.5 190.5 -94.5 326.5c0 64 8.33301 123.167 25 177.5s41.667 103 75 146s78.166 76.833 134.499 101.5s121.5 37 195.5 37zM485.002 44.999c43.333 0 86.168 9.50098 128.501 28.501s78.166 43.5 107.499 73.5v601
c-8 26.667 -19.833 49.667 -35.5 69s-34 34.166 -55 44.499s-42.333 17.833 -64 22.5s-44.5 7 -68.5 7c-98.667 0 -175.334 -37.667 -230.001 -113s-82 -175.666 -82 -300.999c0 -40.667 2.83301 -80.167 8.5 -118.5s15.834 -76.833 30.501 -115.5s33 -72.334 55 -101.001
s50.5 -52 85.5 -70s74.833 -27 119.5 -27zM958.004 1221l-104 202h12l160 -153l207 153h18l-176 -219z" />
    <glyph glyph-name="Dcroat" unicode="&#x110;" horiz-adv-x="1183" 
d="M37 635v31h100v481c0 60 -3.33301 102.333 -10 127s-22.334 47 -47.001 67v5h395c194 0 343.833 -57.5 449.5 -172.5s158.5 -282.167 158.5 -501.5c0 -218 -52.5 -382.5 -157.5 -493.5s-255.167 -166.5 -450.5 -166.5h-395v4c24.667 20 40.334 41.833 47.001 65.5
s10 65.5 10 125.5v428h-100zM233 635v-598h173c379.333 0 569 213 569 639c0 430 -189.667 645 -569 645h-173v-655h396v-31h-396z" />
    <glyph glyph-name="dcroat" unicode="&#x111;" horiz-adv-x="923" 
d="M510 911c88.667 0 159.002 -19.668 211.002 -59.001v289h-354v30h354v48c0 66.667 -24 107.334 -72 122.001v5c22.667 2.66699 50.667 12.5 84 29.5s58.666 32.833 75.999 47.5h6v-252h107v-30h-107v-1037l39 -77v-4l-127 -23h-6v119
c-33.333 -36 -74.5 -64.833 -123.5 -86.5s-102.833 -32.5 -161.5 -32.5c-111.333 -0 -198.5 40.833 -261.5 122.5s-94.5 190.5 -94.5 326.5c0 64 8.33301 123.167 25 177.5s41.667 103 75 146s78.166 76.833 134.499 101.5s121.5 37 195.5 37zM485.002 44.999
c43.333 0 86.168 9.50098 128.501 28.501s78.166 43.5 107.499 73.5v601c-8 26.667 -19.833 49.667 -35.5 69s-34 34.166 -55 44.499s-42.333 17.833 -64 22.5s-44.5 7 -68.5 7c-98.667 0 -175.334 -37.667 -230.001 -113s-82 -175.666 -82 -300.999
c0 -40.667 2.83301 -80.167 8.5 -118.5s15.834 -76.833 30.501 -115.5s33 -72.334 55 -101.001s50.5 -52 85.5 -70s74.833 -27 119.5 -27z" />
    <glyph glyph-name="Emacron" unicode="&#x112;" horiz-adv-x="968" 
d="M80 12l0.00292969 4.00098c24.667 20 40.667 42.333 48 67s11 66.667 11 126v940c0 59.333 -3.5 101.5 -10.5 126.5s-22.5 47.5 -46.5 67.5v5l747 -2l35 -228h-4c-28 41.333 -57.5 76 -88.5 104s-62.5 49 -94.5 63s-62.333 23.833 -91 29.5s-59.334 8.5 -92.001 8.5h-261
v-633h267c52.667 0 95.667 7.83301 129 23.5s65.333 49.5 96 101.5h2v-264h-2c-32 46.667 -64.667 77.5 -98 92.5s-75.666 22.5 -126.999 22.5h-267v-629h312h17c28.667 0 50.667 0.333008 66 1s36.166 4.16699 62.499 10.5s49.166 15.666 68.499 27.999
s41.666 30.833 66.999 55.5s50.333 55 75 91h4l-35 -211h-790zM301.003 1454h367v-31h-367v31z" />
    <glyph glyph-name="emacron" unicode="&#x113;" horiz-adv-x="899" 
d="M483 0c-126.667 0 -226.167 42.3301 -298.5 126.997s-107.833 190.334 -106.5 317.001c0.666992 47.333 6.5 93.333 17.5 138s28.333 87 52 127s52.667 74.833 87 104.5s76.333 53.334 126 71.001s104.167 26.5 163.5 26.5c104 0 181.167 -30.667 231.5 -92
s74.833 -142.666 73.5 -243.999h-645c-2.66699 -24 -4 -41.667 -4 -53c-2 -22.667 -2 -45 0 -67c4 -52 14.333 -101.167 31 -147.5s39.167 -88.166 67.5 -125.499s64.666 -66.833 108.999 -88.5s93.5 -32.5 147.5 -32.5s106.833 11.167 158.5 33.5
s96.834 55.166 135.501 98.499h5c-76 -128.667 -193 -193 -351 -193zM188 595.997l297 0.00292969c22 0 39.667 0.333008 53 1s30.5 2.16699 51.5 4.5s37.833 6.16602 50.5 11.499s25.5 12.666 38.5 21.999s22.667 21.5 29 36.5s9.5 32.833 9.5 53.5
c0 49.333 -20.5 89.666 -61.5 120.999s-90.167 47 -147.5 47c-84.667 0 -155.667 -28 -213 -84s-93 -127 -107 -213zM240 1059h555v-31h-555v31z" />
    <glyph glyph-name="Ebreve" unicode="&#x114;" horiz-adv-x="968" 
d="M80 12l0.00292969 4.00098c24.667 20 40.667 42.333 48 67s11 66.667 11 126v940c0 59.333 -3.5 101.5 -10.5 126.5s-22.5 47.5 -46.5 67.5v5l747 -2l35 -228h-4c-28 41.333 -57.5 76 -88.5 104s-62.5 49 -94.5 63s-62.333 23.833 -91 29.5s-59.334 8.5 -92.001 8.5h-261
v-633h267c52.667 0 95.667 7.83301 129 23.5s65.333 49.5 96 101.5h2v-264h-2c-32 46.667 -64.667 77.5 -98 92.5s-75.666 22.5 -126.999 22.5h-267v-629h312h17c28.667 0 50.667 0.333008 66 1s36.166 4.16699 62.499 10.5s49.166 15.666 68.499 27.999
s41.666 30.833 66.999 55.5s50.333 55 75 91h4l-35 -211h-790zM481.003 1423c-76 0 -130.668 19.165 -164.001 57.498s-48.333 87.5 -45 147.5h4c9.33301 -26 21.5 -47.667 36.5 -65s32.167 -30 51.5 -38s37.833 -13.333 55.5 -16s38.167 -4 61.5 -4
c24.667 0 45.834 1.16699 63.501 3.5s36.667 7.33301 57 15s37.5 20.334 51.5 38.001s25 39.834 33 66.501h4c-2 -30.667 -6 -57 -12 -79s-16.167 -43.167 -30.5 -63.5s-35.5 -35.833 -63.5 -46.5s-62.333 -16 -103 -16z" />
    <glyph glyph-name="ebreve" unicode="&#x115;" horiz-adv-x="899" 
d="M483 0c-126.667 0 -226.167 42.3301 -298.5 126.997s-107.833 190.334 -106.5 317.001c0.666992 47.333 6.5 93.333 17.5 138s28.333 87 52 127s52.667 74.833 87 104.5s76.333 53.334 126 71.001s104.167 26.5 163.5 26.5c104 0 181.167 -30.667 231.5 -92
s74.833 -142.666 73.5 -243.999h-645c-2.66699 -24 -4 -41.667 -4 -53c-2 -22.667 -2 -45 0 -67c4 -52 14.333 -101.167 31 -147.5s39.167 -88.166 67.5 -125.499s64.666 -66.833 108.999 -88.5s93.5 -32.5 147.5 -32.5s106.833 11.167 158.5 33.5
s96.834 55.166 135.501 98.499h5c-76 -128.667 -193 -193 -351 -193zM508 892.997c-84.667 0 -155.667 -27.9971 -213 -83.9971s-93 -127 -107 -213h297c22 0 39.667 0.333008 53 1s30.5 2.16699 51.5 4.5s37.833 6.16602 50.5 11.499s25.5 12.666 38.5 21.999
s22.667 21.5 29 36.5s9.5 32.833 9.5 53.5c0 49.333 -20.5 89.666 -61.5 120.999s-90.167 47 -147.5 47zM449 1028c-74.667 0 -128.667 19.5 -162 58.5s-49 88.5 -47 148.5h6c11.333 -34 28.833 -60.833 52.5 -80.5s47 -32 70 -37s49.833 -7.5 80.5 -7.5
c25.333 0 46.833 1.16699 64.5 3.5s36.5 7.5 56.5 15.5s37 20.833 51 38.5s25.333 40.167 34 67.5h4c-2 -30.667 -6 -57 -12 -79s-16.167 -43.5 -30.5 -64.5s-35.5 -36.833 -63.5 -47.5s-62.667 -16 -104 -16z" />
    <glyph glyph-name="Edotaccent" unicode="&#x116;" horiz-adv-x="968" 
d="M870 12l-789.997 0.000976562v4c24.667 20 40.667 42.333 48 67s11 66.667 11 126v940c0 59.333 -3.5 101.5 -10.5 126.5s-22.5 47.5 -46.5 67.5v5l747 -2l35 -228h-4c-28 41.333 -57.5 76 -88.5 104s-62.5 49 -94.5 63s-62.333 23.833 -91 29.5s-59.334 8.5 -92.001 8.5
h-261v-633h267c52.667 0 95.667 7.83301 129 23.5s65.333 49.5 96 101.5h2v-264h-2c-32 46.667 -64.667 77.5 -98 92.5s-75.666 22.5 -126.999 22.5h-267v-629h312h17c28.667 0 50.667 0.333008 66 1s36.166 4.16699 62.499 10.5s49.166 15.666 68.499 27.999
s41.666 30.833 66.999 55.5s50.333 55 75 91h4zM494.003 1423c-20.667 0 -38.5 7.33301 -53.5 22s-22.5 32.667 -22.5 54c0 20.667 7.5 38.5 22.5 53.5s32.833 22.5 53.5 22.5c21.333 0 39.166 -7.5 53.499 -22.5s21.5 -32.833 21.5 -53.5
c0 -21.333 -7.16699 -39.333 -21.5 -54s-32.166 -22 -53.499 -22z" />
    <glyph glyph-name="edotaccent" unicode="&#x117;" horiz-adv-x="899" 
d="M483 0c-126.667 0 -226.167 42.3301 -298.5 126.997s-107.833 190.334 -106.5 317.001c0.666992 47.333 6.5 93.333 17.5 138s28.333 87 52 127s52.667 74.833 87 104.5s76.333 53.334 126 71.001s104.167 26.5 163.5 26.5c104 0 181.167 -30.667 231.5 -92
s74.833 -142.666 73.5 -243.999h-645c-2.66699 -24 -4 -41.667 -4 -53c-2 -22.667 -2 -45 0 -67c4 -52 14.333 -101.167 31 -147.5s39.167 -88.166 67.5 -125.499s64.666 -66.833 108.999 -88.5s93.5 -32.5 147.5 -32.5s106.833 11.167 158.5 33.5
s96.834 55.166 135.501 98.499h5c-76 -128.667 -193 -193 -351 -193zM508 892.997c-84.667 0 -155.667 -27.9971 -213 -83.9971s-93 -127 -107 -213h297c22 0 39.667 0.333008 53 1s30.5 2.16699 51.5 4.5s37.833 6.16602 50.5 11.499s25.5 12.666 38.5 21.999
s22.667 21.5 29 36.5s9.5 32.833 9.5 53.5c0 49.333 -20.5 89.666 -61.5 120.999s-90.167 47 -147.5 47zM451 1028c-21.333 0 -39.333 7.33301 -54 22s-22 32.667 -22 54c0 20.667 7.33301 38.5 22 53.5s32.667 22.5 54 22.5c20 0 37.167 -7.5 51.5 -22.5
s21.5 -32.833 21.5 -53.5c0 -21.333 -7 -39.333 -21 -54s-31.333 -22 -52 -22z" />
    <glyph glyph-name="Eogonek" unicode="&#x118;" horiz-adv-x="968" 
d="M80 12l0.00390625 4.00195c24.667 20 40.667 42.333 48 67s11 66.667 11 126v940c0 59.333 -3.5 101.5 -10.5 126.5s-22.5 47.5 -46.5 67.5v5l747 -2l35 -228h-4c-28 41.333 -57.5 76 -88.5 104s-62.5 49 -94.5 63s-62.333 23.833 -91 29.5s-59.334 8.5 -92.001 8.5h-261
v-633h267c52.667 0 95.667 7.83301 129 23.5s65.333 49.5 96 101.5h2v-264h-2c-32 46.667 -64.667 77.5 -98 92.5s-75.666 22.5 -126.999 22.5h-267v-629h312h17c28.667 0 50.667 0.333008 66 1s36.166 4.16699 62.499 10.5s49.166 15.666 68.499 27.999
s41.666 30.833 66.999 55.5s50.333 55 75 91h4l-35 -211h-157c-35.333 -33.333 -65 -74.333 -89 -123s-36 -96.334 -36 -143.001c0 -80 38 -123 114 -129c22.667 -1.33301 47.167 3 73.5 13s49.166 25.333 68.499 46h6c-37.333 -70.667 -98 -106 -182 -106
c-50 0 -89.833 14.667 -119.5 44s-44.5 69.333 -44.5 120c0 56 18.5 108 55.5 156s81.833 88.667 134.5 122h-614z" />
    <glyph glyph-name="eogonek" unicode="&#x119;" horiz-adv-x="899" 
d="M477 0c-84 1.33301 -156.832 22.3291 -218.499 62.9961s-107.334 93.834 -137.001 159.501s-44.167 139.5 -43.5 221.5c0.666992 47.333 6.5 93.333 17.5 138s28.333 87 52 127s52.667 74.833 87 104.5s76.333 53.334 126 71.001s104.167 26.5 163.5 26.5
c104 0 181.167 -30.667 231.5 -92s74.833 -142.666 73.5 -243.999h-645c-2.66699 -24 -4 -41.667 -4 -53c-2 -22.667 -2 -45 0 -67c4 -52 14.333 -101.167 31 -147.5s39.167 -88.166 67.5 -125.499s64.666 -66.833 108.999 -88.5s93.5 -32.5 147.5 -32.5
s106.833 11.167 158.5 33.5s96.834 55.166 135.501 98.499h5c-74 -122 -184.667 -186.333 -332 -193c-32.667 -36 -59.667 -76.5 -81 -121.5s-32 -89.167 -32 -132.5c0 -80 38.333 -123 115 -129c24 -1.33301 49 2.83398 75 12.501s48.667 25.167 68 46.5h4
c-37.333 -70.667 -97.333 -106 -180 -106c-50.667 0 -91 14.667 -121 44s-45 69.333 -45 120c0 52.667 16.333 101.667 49 147s73.667 85 123 119zM508.001 892.996c-84.667 0 -155.667 -27.9971 -213 -83.9971s-93 -127 -107 -213h297c22 0 39.667 0.333008 53 1
s30.5 2.16699 51.5 4.5s37.833 6.16602 50.5 11.499s25.5 12.666 38.5 21.999s22.667 21.5 29 36.5s9.5 32.833 9.5 53.5c0 49.333 -20.5 89.666 -61.5 120.999s-90.167 47 -147.5 47z" />
    <glyph glyph-name="Ecaron" unicode="&#x11a;" horiz-adv-x="968" 
d="M80 12l0.00292969 4.00098c24.667 20 40.667 42.333 48 67s11 66.667 11 126v940c0 59.333 -3.5 101.5 -10.5 126.5s-22.5 47.5 -46.5 67.5v5l747 -2l35 -228h-4c-28 41.333 -57.5 76 -88.5 104s-62.5 49 -94.5 63s-62.333 23.833 -91 29.5s-59.334 8.5 -92.001 8.5h-261
v-633h267c52.667 0 95.667 7.83301 129 23.5s65.333 49.5 96 101.5h2v-264h-2c-32 46.667 -64.667 77.5 -98 92.5s-75.666 22.5 -126.999 22.5h-267v-629h312h17c28.667 0 50.667 0.333008 66 1s36.166 4.16699 62.499 10.5s49.166 15.666 68.499 27.999
s41.666 30.833 66.999 55.5s50.333 55 75 91h4l-35 -211h-790zM420.003 1440l-105 202h13l159 -155l207 155h19l-176 -219z" />
    <glyph glyph-name="ecaron" unicode="&#x11b;" horiz-adv-x="899" 
d="M483 0c-126.667 0 -226.167 42.3301 -298.5 126.997s-107.833 190.334 -106.5 317.001c0.666992 47.333 6.5 93.333 17.5 138s28.333 87 52 127s52.667 74.833 87 104.5s76.333 53.334 126 71.001s104.167 26.5 163.5 26.5c104 0 181.167 -30.667 231.5 -92
s74.833 -142.666 73.5 -243.999h-645c-2.66699 -24 -4 -41.667 -4 -53c-2 -22.667 -2 -45 0 -67c4 -52 14.333 -101.167 31 -147.5s39.167 -88.166 67.5 -125.499s64.666 -66.833 108.999 -88.5s93.5 -32.5 147.5 -32.5s106.833 11.167 158.5 33.5
s96.834 55.166 135.501 98.499h5c-76 -128.667 -193 -193 -351 -193zM508 892.997c-84.667 0 -155.667 -27.9971 -213 -83.9971s-93 -127 -107 -213h297c22 0 39.667 0.333008 53 1s30.5 2.16699 51.5 4.5s37.833 6.16602 50.5 11.499s25.5 12.666 38.5 21.999
s22.667 21.5 29 36.5s9.5 32.833 9.5 53.5c0 49.333 -20.5 89.666 -61.5 120.999s-90.167 47 -147.5 47zM418 1042l-105 205h6l166 -155l222 155h4l-176 -219z" />
    <glyph glyph-name="Gcircumflex" unicode="&#x11c;" horiz-adv-x="1294" 
d="M100 674c0 131.333 26 248.668 78 352.001s127.833 184.833 227.5 244.5s215.167 89.5 346.5 89.5c78 0 146.167 -9.16699 204.5 -27.5s114.833 -50.833 169.5 -97.5l-73 -236h-4c2 98 -25.167 178.167 -81.5 240.5s-133.166 93.5 -230.499 93.5
c-91.333 0 -171.833 -16.333 -241.5 -49s-125.5 -77.834 -167.5 -135.501s-73.333 -123.5 -94 -197.5s-31 -155.333 -31 -244c0 -128.667 24.833 -243.667 74.5 -345s123.167 -181.5 220.5 -240.5s211.333 -88.5 342 -88.5c72.667 0 140 14.333 202 43v450
c0 45.333 -14 80.666 -42 105.999s-66.333 45.333 -115 60v4l332 -2v-4c-30.667 -16 -51.334 -37.333 -62.001 -64s-16 -60 -16 -100v-434c-72 -36.667 -137.833 -61.167 -197.5 -73.5s-133.167 -18.5 -220.5 -18.5c-96.667 0 -184.5 17.333 -263.5 52
s-144.333 82.5 -196 143.5s-91.5 132.333 -119.5 214s-42 169.834 -42 264.501zM516 1423l176 219l117 -14l104 -205h-12l-160 156l-206 -156h-19z" />
    <glyph glyph-name="gcircumflex" unicode="&#x11d;" horiz-adv-x="935" 
d="M49 -215l218.999 206.994c-131.333 23.333 -196 72.333 -194 147c0 64.667 47.667 114.667 143 150c-98 56.667 -147 142 -147 256c0 56.667 12.333 108.667 37 156s57.5 86 98.5 116s86.833 53.167 137.5 69.5s103 24.5 157 24.5c20.667 0 46.667 -2.33301 78 -7
s52.333 -7 63 -7c95.333 0 143.666 65 144.999 195h5l116 -86c-15.333 -38.667 -43.666 -68.667 -84.999 -90s-86.666 -34.333 -135.999 -39c56 -24 100.667 -59.167 134 -105.5s50 -102.166 50 -167.499c0 -74.667 -20.667 -141 -62 -199s-94.333 -101.5 -159 -130.5
s-134.334 -43.5 -209.001 -43.5c-77.333 0 -146.333 16 -207 48c-48.667 -19.333 -73 -49.666 -73 -90.999c0 -10.667 1.83301 -20.5 5.5 -29.5s9.83398 -16.833 18.501 -23.5s17.834 -12.667 27.501 -18s22.334 -9.83301 38.001 -13.5s30.334 -6.83398 44.001 -9.50098
s31 -5.16699 52 -7.5s39 -4.16602 54 -5.49902s34.667 -3.16602 59 -5.49902s44.166 -4.16602 59.499 -5.49902c34.667 -3.33301 65.167 -6.66602 91.5 -9.99902s54.5 -8 84.5 -14s55.667 -13.667 77 -23s41.166 -20.333 59.499 -33s32.5 -28.167 42.5 -46.5
s15.333 -39.166 16 -62.499c2.66699 -60 -18.5 -112.5 -63.5 -157.5s-101.167 -77.833 -168.5 -98.5s-139 -31 -215 -31c-100.667 0 -189.334 17.5 -266.001 52.5s-119 81.167 -127 138.5zM464.999 882.994c-90.667 0 -162.168 -26.168 -214.501 -78.501
s-78.5 -119.166 -78.5 -200.499c0 -94 26.333 -174.5 79 -241.5s127.334 -100.5 224.001 -100.5c90.667 0 162.5 27.167 215.5 81.5s79.5 122.833 79.5 205.5c0 92 -27 170.667 -81 236s-128.667 98 -224 98zM169.998 -205.007
c-0.666992 -38 14.1689 -70.832 44.502 -98.499s67.833 -47.834 112.5 -60.501s92.667 -19 144 -19c53.333 0 104.666 7.66699 153.999 23s90.666 38.833 123.999 70.5s48.666 67.5 45.999 107.5c-0.666992 18 -5 34.167 -13 48.5s-19.5 26.333 -34.5 36
s-31 18.167 -48 25.5s-38.5 13.5 -64.5 18.5s-50.167 8.83301 -72.5 11.5s-49.5 5.66699 -81.5 9c-95.333 8.66699 -158.666 15.667 -189.999 21c-37.333 -35.333 -66.833 -68 -88.5 -98s-32.5 -61.667 -32.5 -95zM270.001 1025.99l176 219l117 -14l105 -205h-9l-163 156
l-222 -156h-4z" />
    <glyph glyph-name="Gbreve" unicode="&#x11e;" horiz-adv-x="1294" 
d="M100 674c0 131.333 26 248.668 78 352.001s127.833 184.833 227.5 244.5s215.167 89.5 346.5 89.5c78 0 146.167 -9.16699 204.5 -27.5s114.833 -50.833 169.5 -97.5l-73 -236h-4c2 98 -25.167 178.167 -81.5 240.5s-133.166 93.5 -230.499 93.5
c-91.333 0 -171.833 -16.333 -241.5 -49s-125.5 -77.834 -167.5 -135.501s-73.333 -123.5 -94 -197.5s-31 -155.333 -31 -244c0 -128.667 24.833 -243.667 74.5 -345s123.167 -181.5 220.5 -240.5s211.333 -88.5 342 -88.5c72.667 0 140 14.333 202 43v450
c0 45.333 -14 80.666 -42 105.999s-66.333 45.333 -115 60v4l332 -2v-4c-30.667 -16 -51.334 -37.333 -62.001 -64s-16 -60 -16 -100v-434c-72 -36.667 -137.833 -61.167 -197.5 -73.5s-133.167 -18.5 -220.5 -18.5c-96.667 0 -184.5 17.333 -263.5 52
s-144.333 82.5 -196 143.5s-91.5 132.333 -119.5 214s-42 169.834 -42 264.501zM512 1630h4.00195c12 -34 30 -60.833 54 -80.5s47.5 -32 70.5 -37s49.833 -7.5 80.5 -7.5c25.333 0 46.666 1.16699 63.999 3.5s36.166 7.5 56.499 15.5s37.5 20.833 51.5 38.5
s25 40.167 33 67.5h4c-1.33301 -30 -5 -56.333 -11 -79s-16.333 -44.167 -31 -64.5s-36 -36 -64 -47s-62.333 -16.5 -103 -16.5c-76 0 -130.667 19.5 -164 58.5s-48.333 88.5 -45 148.5z" />
    <glyph glyph-name="gbreve" unicode="&#x11f;" horiz-adv-x="935" 
d="M49 -215l218.999 206.994c-131.333 23.333 -196 72.333 -194 147c0 64.667 47.667 114.667 143 150c-98 56.667 -147 142 -147 256c0 56.667 12.333 108.667 37 156s57.5 86 98.5 116s86.833 53.167 137.5 69.5s103 24.5 157 24.5c20.667 0 46.667 -2.33301 78 -7
s52.333 -7 63 -7c95.333 0 143.666 65 144.999 195h5l116 -86c-15.333 -38.667 -43.666 -68.667 -84.999 -90s-86.666 -34.333 -135.999 -39c56 -24 100.667 -59.167 134 -105.5s50 -102.166 50 -167.499c0 -74.667 -20.667 -141 -62 -199s-94.333 -101.5 -159 -130.5
s-134.334 -43.5 -209.001 -43.5c-77.333 0 -146.333 16 -207 48c-48.667 -19.333 -73 -49.666 -73 -90.999c0 -10.667 1.83301 -20.5 5.5 -29.5s9.83398 -16.833 18.501 -23.5s17.834 -12.667 27.501 -18s22.334 -9.83301 38.001 -13.5s30.334 -6.83398 44.001 -9.50098
s31 -5.16699 52 -7.5s39 -4.16602 54 -5.49902s34.667 -3.16602 59 -5.49902s44.166 -4.16602 59.499 -5.49902c34.667 -3.33301 65.167 -6.66602 91.5 -9.99902s54.5 -8 84.5 -14s55.667 -13.667 77 -23s41.166 -20.333 59.499 -33s32.5 -28.167 42.5 -46.5
s15.333 -39.166 16 -62.499c2.66699 -60 -18.5 -112.5 -63.5 -157.5s-101.167 -77.833 -168.5 -98.5s-139 -31 -215 -31c-100.667 0 -189.334 17.5 -266.001 52.5s-119 81.167 -127 138.5zM464.999 882.994c-90.667 0 -162.168 -26.168 -214.501 -78.501
s-78.5 -119.166 -78.5 -200.499c0 -94 26.333 -174.5 79 -241.5s127.334 -100.5 224.001 -100.5c90.667 0 162.5 27.167 215.5 81.5s79.5 122.833 79.5 205.5c0 92 -27 170.667 -81 236s-128.667 98 -224 98zM169.998 -205.007
c-0.666992 -38 14.1689 -70.832 44.502 -98.499s67.833 -47.834 112.5 -60.501s92.667 -19 144 -19c53.333 0 104.666 7.66699 153.999 23s90.666 38.833 123.999 70.5s48.666 67.5 45.999 107.5c-0.666992 18 -5 34.167 -13 48.5s-19.5 26.333 -34.5 36
s-31 18.167 -48 25.5s-38.5 13.5 -64.5 18.5s-50.167 8.83301 -72.5 11.5s-49.5 5.66699 -81.5 9c-95.333 8.66699 -158.666 15.667 -189.999 21c-37.333 -35.333 -66.833 -68 -88.5 -98s-32.5 -61.667 -32.5 -95zM467.001 1027.99c-74.667 0 -128.665 19.5 -161.998 58.5
s-48.333 88.5 -45 148.5h4c11.333 -34 28.833 -60.833 52.5 -80.5s47 -32 70 -37s49.833 -7.5 80.5 -7.5c25.333 0 46.833 1.16699 64.5 3.5s36.667 7.5 57 15.5s37.5 20.833 51.5 38.5s25.333 40.167 34 67.5h4c-1.33301 -24 -3.83301 -45.167 -7.5 -63.5
s-10.334 -37 -20.001 -56s-21.834 -34.5 -36.501 -46.5s-34.5 -21.833 -59.5 -29.5s-54.167 -11.5 -87.5 -11.5z" />
    <glyph glyph-name="Gdotaccent" unicode="&#x120;" horiz-adv-x="1294" 
d="M752 1360c78 0 146.167 -9.16504 204.5 -27.498s114.833 -50.833 169.5 -97.5l-73 -236h-4c2 98 -25.167 178.167 -81.5 240.5s-133.166 93.5 -230.499 93.5c-91.333 0 -171.833 -16.333 -241.5 -49s-125.5 -77.834 -167.5 -135.501s-73.333 -123.5 -94 -197.5
s-31 -155.333 -31 -244c0 -128.667 24.833 -243.667 74.5 -345s123.167 -181.5 220.5 -240.5s211.333 -88.5 342 -88.5c72.667 0 140 14.333 202 43v450c0 45.333 -14 80.666 -42 105.999s-66.333 45.333 -115 60v4l332 -2v-4c-30.667 -16 -51.334 -37.333 -62.001 -64
s-16 -60 -16 -100v-434c-72 -36.667 -137.833 -61.167 -197.5 -73.5s-133.167 -18.5 -220.5 -18.5c-96.667 -0 -184.5 17.333 -263.5 52s-144.333 82.5 -196 143.5s-91.5 132.333 -119.5 214s-42 169.834 -42 264.501c0 131.333 26 248.666 78 351.999
s127.833 184.833 227.5 244.5s215.167 89.5 346.5 89.5zM719 1575c20.667 0 38.5 -7.5 53.5 -22.5s22.5 -32.833 22.5 -53.5c0 -21.333 -7.5 -39.333 -22.5 -54s-32.833 -22 -53.5 -22s-38.5 7.33301 -53.5 22s-22.5 32.667 -22.5 54c0 20.667 7.5 38.5 22.5 53.5
s32.833 22.5 53.5 22.5z" />
    <glyph glyph-name="gdotaccent" unicode="&#x121;" horiz-adv-x="935" 
d="M49 -215l218.999 206.994c-131.333 23.333 -196 72.333 -194 147c0 64.667 47.667 114.667 143 150c-98 56.667 -147 142 -147 256c0 56.667 12.333 108.667 37 156s57.5 86 98.5 116s86.833 53.167 137.5 69.5s103 24.5 157 24.5c20.667 0 46.667 -2.33301 78 -7
s52.333 -7 63 -7c95.333 0 143.666 65 144.999 195h5l116 -86c-15.333 -38.667 -43.666 -68.667 -84.999 -90s-86.666 -34.333 -135.999 -39c56 -24 100.667 -59.167 134 -105.5s50 -102.166 50 -167.499c0 -74.667 -20.667 -141 -62 -199s-94.333 -101.5 -159 -130.5
s-134.334 -43.5 -209.001 -43.5c-77.333 0 -146.333 16 -207 48c-48.667 -19.333 -73 -49.666 -73 -90.999c0 -10.667 1.83301 -20.5 5.5 -29.5s9.83398 -16.833 18.501 -23.5s17.834 -12.667 27.501 -18s22.334 -9.83301 38.001 -13.5s30.334 -6.83398 44.001 -9.50098
s31 -5.16699 52 -7.5s39 -4.16602 54 -5.49902s34.667 -3.16602 59 -5.49902s44.166 -4.16602 59.499 -5.49902c34.667 -3.33301 65.167 -6.66602 91.5 -9.99902s54.5 -8 84.5 -14s55.667 -13.667 77 -23s41.166 -20.333 59.499 -33s32.5 -28.167 42.5 -46.5
s15.333 -39.166 16 -62.499c2.66699 -60 -18.5 -112.5 -63.5 -157.5s-101.167 -77.833 -168.5 -98.5s-139 -31 -215 -31c-100.667 0 -189.334 17.5 -266.001 52.5s-119 81.167 -127 138.5zM171.999 603.994c0 -94 26.332 -174.501 78.999 -241.501
s127.334 -100.5 224.001 -100.5c90.667 0 162.5 27.167 215.5 81.5s79.5 122.833 79.5 205.5c0 92 -27 170.667 -81 236s-128.667 98 -224 98c-90.667 0 -162.167 -26.167 -214.5 -78.5s-78.5 -119.166 -78.5 -200.499zM169.998 -205.007
c-0.666992 -38 14.1689 -70.832 44.502 -98.499s67.833 -47.834 112.5 -60.501s92.667 -19 144 -19c53.333 0 104.666 7.66699 153.999 23s90.666 38.833 123.999 70.5s48.666 67.5 45.999 107.5c-0.666992 18 -5 34.167 -13 48.5s-19.5 26.333 -34.5 36
s-31 18.167 -48 25.5s-38.5 13.5 -64.5 18.5s-50.167 8.83301 -72.5 11.5s-49.5 5.66699 -81.5 9c-95.333 8.66699 -158.666 15.667 -189.999 21c-37.333 -35.333 -66.833 -68 -88.5 -98s-32.5 -61.667 -32.5 -95zM479.001 1027.99c-20.667 0 -38.5 7.33301 -53.5 22
s-22.5 32.667 -22.5 54c0 20.667 7.5 38.5 22.5 53.5s32.833 22.5 53.5 22.5c21.333 0 39.333 -7.5 54 -22.5s22 -32.833 22 -53.5c0 -21.333 -7.33301 -39.333 -22 -54s-32.667 -22 -54 -22z" />
    <glyph glyph-name="uni0122" unicode="&#x122;" horiz-adv-x="1294" 
d="M100 674c0 131.333 26 248.668 78 352.001s127.833 184.833 227.5 244.5s215.167 89.5 346.5 89.5c78 0 146.167 -9.16699 204.5 -27.5s114.833 -50.833 169.5 -97.5l-73 -236h-4c2 98 -25.167 178.167 -81.5 240.5s-133.166 93.5 -230.499 93.5
c-91.333 0 -171.833 -16.333 -241.5 -49s-125.5 -77.834 -167.5 -135.501s-73.333 -123.5 -94 -197.5s-31 -155.333 -31 -244c0 -128.667 24.833 -243.667 74.5 -345s123.167 -181.5 220.5 -240.5s211.333 -88.5 342 -88.5c72.667 0 140 14.333 202 43v450
c0 45.333 -14 80.666 -42 105.999s-66.333 45.333 -115 60v4l332 -2v-4c-30.667 -16 -51.334 -37.333 -62.001 -64s-16 -60 -16 -100v-434c-72 -36.667 -137.833 -61.167 -197.5 -73.5s-133.167 -18.5 -220.5 -18.5c-96.667 0 -184.5 17.333 -263.5 52
s-144.333 82.5 -196 143.5s-91.5 132.333 -119.5 214s-42 169.834 -42 264.501zM719 -263.998c-20.667 0 -37.999 6.83105 -51.999 20.498s-20.667 32.167 -20 55.5c1.33301 18.667 9.16602 34.834 23.499 48.501s31.166 20.5 50.499 20.5c22.667 0 41 -7.5 55 -22.5
s21 -33.5 21 -55.5c0 -19.333 -7 -40.5 -21 -63.5s-26.5 -40.167 -37.5 -51.5s-26.5 -26.666 -46.5 -45.999l-4 12c30.667 36 51.334 65.333 62.001 88c-10 -4 -20.333 -6 -31 -6z" />
    <glyph glyph-name="uni0123" unicode="&#x123;" horiz-adv-x="935" 
d="M49 -215l218.999 206.994c-131.333 23.333 -196 72.333 -194 147c0 64.667 47.667 114.667 143 150c-98 56.667 -147 142 -147 256c0 56.667 12.333 108.667 37 156s57.5 86 98.5 116s86.833 53.167 137.5 69.5s103 24.5 157 24.5c20.667 0 46.667 -2.33301 78 -7
s52.333 -7 63 -7c95.333 0 143.666 65 144.999 195h5l116 -86c-15.333 -38.667 -43.666 -68.667 -84.999 -90s-86.666 -34.333 -135.999 -39c56 -24 100.667 -59.167 134 -105.5s50 -102.166 50 -167.499c0 -74.667 -20.667 -141 -62 -199s-94.333 -101.5 -159 -130.5
s-134.334 -43.5 -209.001 -43.5c-77.333 0 -146.333 16 -207 48c-48.667 -19.333 -73 -49.666 -73 -90.999c0 -10.667 1.83301 -20.5 5.5 -29.5s9.83398 -16.833 18.501 -23.5s17.834 -12.667 27.501 -18s22.334 -9.83301 38.001 -13.5s30.334 -6.83398 44.001 -9.50098
s31 -5.16699 52 -7.5s39 -4.16602 54 -5.49902s34.667 -3.16602 59 -5.49902s44.166 -4.16602 59.499 -5.49902c34.667 -3.33301 65.167 -6.66602 91.5 -9.99902s54.5 -8 84.5 -14s55.667 -13.667 77 -23s41.166 -20.333 59.499 -33s32.5 -28.167 42.5 -46.5
s15.333 -39.166 16 -62.499c2.66699 -60 -18.5 -112.5 -63.5 -157.5s-101.167 -77.833 -168.5 -98.5s-139 -31 -215 -31c-100.667 0 -189.334 17.5 -266.001 52.5s-119 81.167 -127 138.5zM464.999 882.994c-90.667 0 -162.168 -26.168 -214.501 -78.501
s-78.5 -119.166 -78.5 -200.499c0 -94 26.333 -174.5 79 -241.5s127.334 -100.5 224.001 -100.5c90.667 0 162.5 27.167 215.5 81.5s79.5 122.833 79.5 205.5c0 92 -27 170.667 -81 236s-128.667 98 -224 98zM169.998 -205.007
c-0.666992 -38 14.1689 -70.832 44.502 -98.499s67.833 -47.834 112.5 -60.501s92.667 -19 144 -19c53.333 0 104.666 7.66699 153.999 23s90.666 38.833 123.999 70.5s48.666 67.5 45.999 107.5c-0.666992 18 -5 34.167 -13 48.5s-19.5 26.333 -34.5 36
s-31 18.167 -48 25.5s-38.5 13.5 -64.5 18.5s-50.167 8.83301 -72.5 11.5s-49.5 5.66699 -81.5 9c-95.333 8.66699 -158.666 15.667 -189.999 21c-37.333 -35.333 -66.833 -68 -88.5 -98s-32.5 -61.667 -32.5 -95zM469.001 -602.006c-21.333 0 -39.166 6.83301 -53.499 20.5
s-21.166 32.167 -20.499 55.5c1.33301 18.667 9.16602 34.834 23.499 48.501s31.166 20.5 50.499 20.5c22.667 0 41 -7.5 55 -22.5s21 -33.5 21 -55.5c0 -44 -35 -97.667 -105 -161l-4 12c34 39.333 55.333 68.666 64 87.999c-12 -4 -22.333 -6 -31 -6z" />
    <glyph glyph-name="Hcircumflex" unicode="&#x124;" horiz-adv-x="1150" 
d="M313 12l-233 0.00390625l2 6c23.333 18.667 38.333 40.5 45 65.5s10 67.5 10 127.5v936c0 60 -3.33301 102.333 -10 127s-21.667 47 -45 67v5h231v-5c-28 -22.667 -48.333 -46.834 -61 -72.501s-19 -64.834 -19 -117.501v-424h695v424
c0 53.333 -6.16699 92.833 -18.5 118.5s-32.833 49.5 -61.5 71.5v5h233v-5c-24.667 -20 -40.334 -42.333 -47.001 -67s-10 -67 -10 -127v-936c0 -60 3.33301 -102.5 10 -127.5s22.334 -46.833 47.001 -65.5v-6h-233v4c28.667 23.333 49.167 47.666 61.5 72.999
s18.5 64.666 18.5 117.999v495h-695v-495c0 -52.667 6.16699 -91.667 18.5 -117s32.833 -50 61.5 -74v-4zM389 1423l176 219l119 -14l102 -205h-12l-160 156l-204 -156h-21z" />
    <glyph glyph-name="hcircumflex" unicode="&#x125;" horiz-adv-x="931" 
d="M209 1423l4.00098 -0.00195312l-2 -624c51.333 27.333 110.166 52.833 176.499 76.5s126.833 35.5 181.5 35.5c84.667 0 148.5 -22.333 191.5 -67s64.5 -110.334 64.5 -197.001v-522c0 -27.333 3.5 -48.333 10.5 -63s19.167 -30 36.5 -46v-4h-186v4
c16.667 16 28.334 31.167 35.001 45.5s10 35.5 10 63.5v512c0 78 -19.5 134 -58.5 168s-97.833 51 -176.5 51c-88.667 0 -183.667 -26.667 -285 -80l-2 -651c0 -27.333 3.66699 -48.333 11 -63s20 -30 38 -46v-4h-188v4c17.333 16.667 29.833 32.334 37.5 47.001
s11.5 35.334 11.5 62.001l2 1094c0 60 -20.667 100.667 -62 122v5c23.333 2.66699 50.666 12.334 81.999 29.001s54 32.667 68 48zM141.001 1423h-4l176 219l117 -14l105 -205h-7l-166 156z" />
    <glyph glyph-name="Hbar" unicode="&#x126;" horiz-adv-x="1150" 
d="M31 1030v31.0039h106v86c0 60 -3.33301 102.333 -10 127s-21.667 47 -45 67v5h231v-5c-28 -22.667 -48.333 -46.834 -61 -72.501s-19 -64.834 -19 -117.501v-90h695v90c0 53.333 -6.16699 92.833 -18.5 118.5s-32.833 49.5 -61.5 71.5v5h233v-5
c-24.667 -20 -40.334 -42.333 -47.001 -67s-10 -67 -10 -127v-86h80v-31h-80v-819c0 -60 3.33301 -102.5 10 -127.5s22.334 -46.833 47.001 -65.5v-6h-233v4c28.667 23.333 49.167 47.666 61.5 72.999s18.5 64.666 18.5 117.999v495h-695v-495
c0 -52.667 6.16699 -91.667 18.5 -117s32.833 -50 61.5 -74v-4h-233l2 6c23.333 18.667 38.333 40.5 45 65.5s10 67.5 10 127.5v819h-106zM928 1030h-695v-303h695v303z" />
    <glyph glyph-name="hbar" unicode="&#x127;" horiz-adv-x="931" 
d="M121 1028l-79.999 -0.00195312v31h80v160c0 60 -20.667 100.667 -62 122v5c23.333 2.66699 50.666 12.334 81.999 29.001s54 32.667 68 48h4l-2 -364h432v-31h-432v-229c51.333 27.333 110.166 52.833 176.499 76.5s126.833 35.5 181.5 35.5
c84.667 0 148.5 -22.333 191.5 -67s64.5 -110.334 64.5 -197.001v-522c0 -27.333 3.5 -48.333 10.5 -63s19.167 -30 36.5 -46v-4h-186v4c16.667 16 28.334 31.167 35.001 45.5s10 35.5 10 63.5v512c0 78 -19.5 134 -58.5 168s-97.833 51 -176.5 51
c-88.667 0 -183.667 -26.667 -285 -80l-2 -651c0 -27.333 3.66699 -48.333 11 -63s20 -30 38 -46v-4h-188v4c17.333 16.667 29.833 32.334 37.5 47.001s11.5 35.334 11.5 62.001z" />
    <glyph glyph-name="Itilde" unicode="&#x128;" horiz-adv-x="360" 
d="M82 12v6c24.667 18.667 40.334 40.5 47.001 65.5s10 67.5 10 127.5v936c0 60 -3.33301 102.333 -10 127s-22.334 47 -47.001 67v5h211v-5c-24.667 -20 -40.334 -42.333 -47.001 -67s-10 -67 -10 -127v-936c0 -60 3.33301 -102.5 10 -127.5s22.334 -46.833 47.001 -65.5
v-6h-211zM-61 1434c-2 54 10.5 95.666 37.5 124.999s63.5 41.333 109.5 36c20.667 -3.33301 61 -20.333 121 -51c42.667 -22 83 -33 121 -33c33.333 0 55.833 8 67.5 24s19.834 41.667 24.501 77h2c2 -62.667 -8.83301 -110.167 -32.5 -142.5s-62.834 -48.5 -117.501 -48.5
c-28.667 0 -71 15.667 -127 47c-0.666992 0.666992 -5.33398 3.5 -14.001 8.5s-13.834 8 -15.501 9s-6.16699 3.5 -13.5 7.5s-12.5 6.66699 -15.5 8s-7.66699 3.33301 -14 6s-11.5 4.33398 -15.5 5.00098s-8.66699 1.5 -14 2.5s-10.666 1.5 -15.999 1.5
c-25.333 0 -44.166 -5.66699 -56.499 -17s-21.5 -33 -27.5 -65h-4z" />
    <glyph glyph-name="itilde" unicode="&#x129;" horiz-adv-x="350" 
d="M80 829l0.00195312 4.99609c23.333 4 50.666 14.167 81.999 30.5s54.333 31.833 69 46.5h5l-3 -786c0 -27.333 3.66699 -48.166 11 -62.499s19.666 -29.833 36.999 -46.5v-4h-189v4c17.333 16.667 29.833 32.334 37.5 47.001s11.5 35.334 11.5 62.001v582
c0 60.667 -20.333 101.334 -61 122.001zM82.002 1200c11.333 -1.33301 22.667 -4.16602 34 -8.49902s26.833 -11.5 46.5 -21.5s32.5 -16.333 38.5 -19c48 -23.333 89 -35 123 -35c33.333 0 55.833 8.16699 67.5 24.5s19.167 41.833 22.5 76.5l4 2
c2 -63.333 -8.83301 -111 -32.5 -143s-62.834 -48 -117.501 -48c-31.333 0 -73.666 15.667 -126.999 47c-53.333 30 -93.666 45 -120.999 45c-24 0 -42.167 -5.66699 -54.5 -17s-21.833 -32.333 -28.5 -63l-5 -2c-0.666992 55.333 12.666 97.666 39.999 126.999
s64 41 110 35z" />
    <glyph glyph-name="Imacron" unicode="&#x12a;" horiz-adv-x="360" 
d="M-4 1059h143v88c0 60 -3.33301 102.333 -10 127s-22.334 47 -47.001 67v5h211v-5c-24.667 -20 -40.334 -42.333 -47.001 -67s-10 -67 -10 -127v-88h129v-31h-129v-817c0 -60 3.33301 -102.5 10 -127.5s22.334 -46.833 47.001 -65.5v-6h-211v6
c24.667 18.667 40.334 40.5 47.001 65.5s10 67.5 10 127.5v817h-143v31z" />
    <glyph glyph-name="imacron" unicode="&#x12b;" horiz-adv-x="350" 
d="M80 829l0.00195312 4.99609c23.333 4 50.666 14.167 81.999 30.5s54.333 31.833 69 46.5h5l-3 -786c0 -27.333 3.66699 -48.166 11 -62.499s19.666 -29.833 36.999 -46.5v-4h-189v4c17.333 16.667 29.833 32.334 37.5 47.001s11.5 35.334 11.5 62.001v582
c0 60.667 -20.333 101.334 -61 122.001zM334.002 1028h-299v31h299v-31z" />
    <glyph glyph-name="Iogonek" unicode="&#x12e;" horiz-adv-x="360" 
d="M12 -266c0 56 18.499 107.833 55.499 155.5s82.167 88.5 135.5 122.5h-121v6c24.667 18.667 40.334 40.5 47.001 65.5s10 67.5 10 127.5v936c0 60 -3.33301 102.333 -10 127s-22.334 47 -47.001 67v5h211v-5c-24.667 -20 -40.334 -42.333 -47.001 -67s-10 -67 -10 -127
v-936c0 -60 3.33301 -102.5 10 -127.5s22.334 -46.833 47.001 -65.5v-6h-72c-35.333 -35.333 -64.666 -76.833 -87.999 -124.5s-35 -94.834 -35 -141.501c0 -80.667 37.667 -123.667 113 -129c24 -1.33301 49 2.83398 75 12.501s48.667 25.167 68 46.5h4
c-35.333 -70.667 -95.333 -106 -180 -106c-50.667 0 -91 14.667 -121 44s-45 69.333 -45 120z" />
    <glyph glyph-name="iogonek" unicode="&#x12f;" horiz-adv-x="344" 
d="M0 -266c0 56.667 18.1689 108.83 54.502 156.497s80.833 88.167 133.5 121.5h-104v4c17.333 16.667 29.833 32.334 37.5 47.001s11.5 35.334 11.5 62.001v582c0 60.667 -20.333 101.334 -61 122.001v5c23.333 4 50.666 14.167 81.999 30.5s54.333 31.833 69 46.5h4
l-2 -786c0 -27.333 3.5 -48.333 10.5 -63s19.167 -30 36.5 -46v-4h-65c-34.667 -36 -63.834 -78 -87.501 -126s-35.5 -94.667 -35.5 -140c0 -80 38.333 -123 115 -129c22.667 -1.33301 47 3 73 13s48.667 25.333 68 46h4c-35.333 -70.667 -95.333 -106 -180 -106
c-50 0 -89.833 14.667 -119.5 44s-44.5 69.333 -44.5 120zM94.002 1108c0 20.667 7.5 38.5 22.5 53.5s32.833 22.5 53.5 22.5s38.5 -7.5 53.5 -22.5s22.5 -32.833 22.5 -53.5c0 -21.333 -7.5 -39.333 -22.5 -54s-32.833 -22 -53.5 -22s-38.5 7.33301 -53.5 22
s-22.5 32.667 -22.5 54z" />
    <glyph glyph-name="Idotaccent" unicode="&#x130;" horiz-adv-x="360" 
d="M293 12h-211v6c24.667 18.667 40.334 40.5 47.001 65.5s10 67.5 10 127.5v936c0 60 -3.33301 102.333 -10 127s-22.334 47 -47.001 67v5h211v-5c-24.667 -20 -40.334 -42.333 -47.001 -67s-10 -67 -10 -127v-936c0 -60 3.33301 -102.5 10 -127.5
s22.334 -46.833 47.001 -65.5v-6zM111 1499c0 20.667 7.33301 38.5 22 53.5s32.334 22.5 53.001 22.5s38.5 -7.5 53.5 -22.5s22.5 -32.833 22.5 -53.5s-7.5 -38.5 -22.5 -53.5s-32.833 -22.5 -53.5 -22.5s-38.334 7.5 -53.001 22.5s-22 32.833 -22 53.5z" />
    <glyph glyph-name="dotlessi" unicode="&#x131;" horiz-adv-x="350" 
d="M80 829l0.00195312 4.99609c23.333 4 50.666 14.167 81.999 30.5s54.333 31.833 69 46.5h5l-3 -786c0 -27.333 3.66699 -48.166 11 -62.499s19.666 -29.833 36.999 -46.5v-4h-189v4c17.333 16.667 29.833 32.334 37.5 47.001s11.5 35.334 11.5 62.001v582
c0 60.667 -20.333 101.334 -61 122.001z" />
    <glyph glyph-name="Jcircumflex" unicode="&#x134;" horiz-adv-x="669" 
d="M57 270l4.00293 -0.00585938c35.333 -91.333 71.833 -154.666 109.5 -189.999s78.5 -53.666 122.5 -54.999c22 0 42 4.33301 60 13s32.667 19.334 44 32.001s21.166 29.334 29.499 50.001s14.5 39.834 18.5 57.501s7.16699 38.834 9.5 63.501s3.66602 44.5 3.99902 59.5
s0.5 32.833 0.5 53.5v797c0 53.333 -6.16699 92.833 -18.5 118.5s-32.833 49.5 -61.5 71.5v5h233v-5c-24.667 -20 -40.334 -42.333 -47.001 -67s-10 -67 -10 -127l-2 -789c0 -30.667 -0.5 -57.167 -1.5 -79.5s-3.66699 -46.666 -8 -72.999s-10.166 -48.833 -17.499 -67.5
s-17.333 -37.334 -30 -56.001s-28 -33.5 -46 -44.5s-40.333 -20 -67 -27s-56.667 -10.5 -90 -10.5c-100.667 0 -179.334 22 -236.001 66v204zM274.003 1422.99l177 219l116 -14l105 -205h-15l-157 156l-207 -156h-19z" />
    <glyph glyph-name="jcircumflex" unicode="&#x135;" horiz-adv-x="329" 
d="M14 -397c36 32 59.998 75.332 71.998 129.999s18 124 18 208v766c0 60.667 -20.333 101.334 -61 122.001v5c23.333 4 51 14.333 83 31s55 32 69 46h4l-2 -952c0 -42 -2.33301 -79.667 -7 -113s-13.167 -67.166 -25.5 -101.499s-31.166 -64.333 -56.499 -90
s-56.666 -45.834 -93.999 -60.501v9zM-66.002 1026h-4l179 219l116 -14l105 -205h-8l-164 156z" />
    <glyph glyph-name="uni0136" unicode="&#x136;" horiz-adv-x="1083" 
d="M313 12l-233.001 0.00195312l2 6c23.333 18.667 38.333 40.5 45 65.5s10 67.5 10 127.5v936c0 60 -3.33301 102.333 -10 127s-21.667 47 -45 67v5h231v-5c-28 -22.667 -48.333 -46.834 -61 -72.501s-19 -64.834 -19 -117.501v-561l465 502c22 23.333 39.333 43.333 52 60
s24.834 37 36.501 61s13.834 46.833 6.50098 68.5s-24 41.5 -50 59.5v5h226v-5l-498 -534l442 -625c73.333 -100.667 115.666 -156 126.999 -166v-4h-204v4c24 38 21 78.333 -9 121l-421 598l-173 -182v-346c0 -52.667 6.16699 -91.667 18.5 -117s32.833 -50 61.5 -74v-4z
M572.999 -263.998c-21.333 0 -39 6.83203 -53 20.499s-20.667 32.167 -20 55.5c1.33301 18.667 9.16602 34.834 23.499 48.501s31.5 20.5 51.5 20.5c22 0 40.167 -7.5 54.5 -22.5s21.5 -33.5 21.5 -55.5c0 -19.333 -6.83301 -40.333 -20.5 -63s-26.167 -40 -37.5 -52
s-26.666 -27.333 -45.999 -46l-6 12c30 32 51 61.333 63 88c-10 -4 -20.333 -6 -31 -6z" />
    <glyph glyph-name="uni0137" unicode="&#x137;" horiz-adv-x="849" 
d="M209 1423l4.00098 -0.00292969l-2 -1046l326 338c53.333 60.667 76.333 120 69 178v4h164v-4c-28.667 -26 -60 -54.167 -94 -84.5s-61 -54.5 -81 -72.5s-35.333 -32.667 -46 -44l-109 -112l367 -564v-4h-166v4c10 35.333 4 69 -18 101l-250 391l-162 -166v-217
c0 -27.333 3.5 -48.333 10.5 -63s19.167 -30 36.5 -46v-4h-186v4c17.333 16.667 29.833 32.334 37.5 47.001s11.5 35.334 11.5 62.001v1094c0 60.667 -20.667 100.667 -62 120v7c23.333 2.66699 50.666 12.334 81.999 29.001s54 32.667 68 48zM459.001 -264.003
c-21.333 0 -39.168 6.83105 -53.501 20.498s-21.166 32.167 -20.499 55.5c1.33301 18.667 9.33301 34.834 24 48.501s32 20.5 52 20.5c22 0 40.167 -7.5 54.5 -22.5s21.5 -33.5 21.5 -55.5c0 -19.333 -7 -40.5 -21 -63.5s-26.5 -40.167 -37.5 -51.5
s-26.5 -26.666 -46.5 -45.999l-6 12c30 32 51 61.333 63 88c-10 -4 -20 -6 -30 -6z" />
    <glyph glyph-name="kgreenlandic" unicode="&#x138;" 
d="M121 14l2 1127h96l-2 -555l483 555h66l-471 -543l539 -586h-132l-485 523v-521h-96z" />
    <glyph glyph-name="Lacute" unicode="&#x139;" horiz-adv-x="985" 
d="M870 12h-790v4c24.667 20 40.334 42.5 47.001 67.5s10 67.5 10 127.5v936c0 60 -3.33301 102.333 -10 127s-22.334 47 -47.001 67v5h211v-5c-24.667 -20 -40.5 -42.333 -47.5 -67s-10.5 -67 -10.5 -127v-1110h312h17c20.667 0 36.334 0.166992 47.001 0.5
s25.667 1.5 45 3.5s35.166 5.33301 47.499 10s27.5 11.5 45.5 20.5s34.5 20 49.5 33s31.5 29.5 49.5 49.5s35.667 43 53 69h6zM160 1423h-6l145 217l82 -65z" />
    <glyph glyph-name="lacute" unicode="&#x13a;" horiz-adv-x="335" 
d="M70 1341l-0.000976562 4.99707c23.333 2.66699 50.333 12.334 81 29.001s53.334 32.667 68.001 48h4l-2 -1298c0 -27.333 3.5 -48.333 10.5 -63s19.167 -30 36.5 -46v-4h-186v4c17.333 16.667 29.833 32.334 37.5 47.001s11.5 35.334 11.5 62.001v1094
c0 62 -20.333 102.667 -61 122zM54.999 1423l144 217l84 -65l-222 -152h-6z" />
    <glyph glyph-name="uni013B" unicode="&#x13b;" horiz-adv-x="985" 
d="M80 1346h211v-5c-24.667 -20 -40.5 -42.333 -47.5 -67s-10.5 -67 -10.5 -127v-1110h312h17c20.667 0 36.334 0.166992 47.001 0.5s25.667 1.5 45 3.5s35.166 5.33301 47.499 10s27.5 11.5 45.5 20.5s34.5 20 49.5 33s31.5 29.5 49.5 49.5s35.667 43 53 69h6l-35 -211
h-790v4c24.667 20 40.334 42.5 47.001 67.5s10 67.5 10 127.5v936c0 60 -3.33301 102.333 -10 127s-22.334 47 -47.001 67v5zM479 -264c-21.333 0 -38.999 6.83301 -52.999 20.5s-20.667 32.167 -20 55.5c1.33301 18.667 9.16602 34.834 23.499 48.501s31.5 20.5 51.5 20.5
c22 0 40.167 -7.5 54.5 -22.5s21.5 -33.5 21.5 -55.5c0 -19.333 -6.83301 -40.333 -20.5 -63s-26.167 -40 -37.5 -52s-26.666 -27.333 -45.999 -46l-7 12c31.333 33.333 52.666 62.666 63.999 87.999c-10 -4 -20.333 -6 -31 -6z" />
    <glyph glyph-name="uni013C" unicode="&#x13c;" horiz-adv-x="335" 
d="M70 1341l-0.000976562 4.99707c23.333 2.66699 50.333 12.334 81 29.001s53.334 32.667 68.001 48h4l-2 -1298c0 -27.333 3.5 -48.333 10.5 -63s19.167 -30 36.5 -46v-4h-186v4c17.333 16.667 29.833 32.334 37.5 47.001s11.5 35.334 11.5 62.001v1094
c0 62 -20.333 102.667 -61 122z" />
    <glyph glyph-name="Lcaron" unicode="&#x13d;" horiz-adv-x="985" 
d="M870 12h-790v4c24.667 20 40.334 42.5 47.001 67.5s10 67.5 10 127.5v936c0 60 -3.33301 102.333 -10 127s-22.334 47 -47.001 67v5h211v-5c-24.667 -20 -40.5 -42.333 -47.5 -67s-10.5 -67 -10.5 -127v-1110h312h17c20.667 0 36.334 0.166992 47.001 0.5
s25.667 1.5 45 3.5s35.166 5.33301 47.499 10s27.5 11.5 45.5 20.5s34.5 20 49.5 33s31.5 29.5 49.5 49.5s35.667 43 53 69h6zM172 1423l-127 205h16l146 -127l174 127h16l-186 -205h-39z" />
    <glyph glyph-name="lcaron" unicode="&#x13e;" horiz-adv-x="331" 
d="M70 1341l-0.000976562 4.99707c23.333 2.66699 50.333 12.334 81 29.001s53.334 32.667 68.001 48h4l-2 -1298c0 -27.333 3.5 -48.333 10.5 -63s19.167 -30 36.5 -46v-4h-186v4c17.333 16.667 29.833 32.334 37.5 47.001s11.5 35.334 11.5 62.001v1094
c0 62 -20.333 102.667 -61 122zM19.999 1628h17l145 -127l176 127h15l-185 -205h-41z" />
    <glyph glyph-name="Ldot" unicode="&#x13f;" horiz-adv-x="985" 
d="M80 1346h211v-5c-24.667 -20 -40.5 -42.333 -47.5 -67s-10.5 -67 -10.5 -127v-1110h312h17c20.667 0 36.334 0.166992 47.001 0.5s25.667 1.5 45 3.5s35.166 5.33301 47.499 10s27.5 11.5 45.5 20.5s34.5 20 49.5 33s31.5 29.5 49.5 49.5s35.667 43 53 69h6l-35 -211
h-790v4c24.667 20 40.334 42.5 47.001 67.5s10 67.5 10 127.5v936c0 60 -3.33301 102.333 -10 127s-22.334 47 -47.001 67v5zM561 467c-21.333 0 -39.666 7.66699 -54.999 23s-23 33.666 -23 54.999s7.66699 39.666 23 54.999s33.666 23 54.999 23
s39.666 -7.66699 54.999 -23s23 -33.666 23 -54.999s-7.66699 -39.666 -23 -54.999s-33.666 -23 -54.999 -23z" />
    <glyph glyph-name="ldot" unicode="&#x140;" horiz-adv-x="532" 
d="M219 1423l3.99902 -0.00292969l-2 -1298c0 -27.333 3.5 -48.333 10.5 -63s19.167 -30 36.5 -46v-4h-186v4c17.333 16.667 29.833 32.334 37.5 47.001s11.5 35.334 11.5 62.001v1094c0 62 -20.333 102.667 -61 122v5c23.333 2.66699 50.333 12.334 81 29.001
s53.334 32.667 68.001 48zM405.999 720.997c22 0 40.333 -7.49805 55 -22.498s22 -33.5 22 -55.5s-7.33301 -40.5 -22 -55.5s-33 -22.5 -55 -22.5c-21.333 0 -39.333 7.66699 -54 23s-22 33.666 -22 54.999s7.33301 39.666 22 54.999s32.667 23 54 23z" />
    <glyph glyph-name="Lslash" unicode="&#x141;" horiz-adv-x="985" 
d="M18 551l119 35v561c0 60 -3.33301 102.333 -10 127s-22.334 47 -47.001 67v5h211v-5c-24.667 -20 -40.5 -42.333 -47.5 -67s-10.5 -67 -10.5 -127v-533l302 91v-29l-302 -90v-549h312h17c20.667 0 36.334 0.166992 47.001 0.5s25.667 1.5 45 3.5
s35.166 5.33301 47.499 10s27.5 11.5 45.5 20.5s34.5 20 49.5 33s31.5 29.5 49.5 49.5s35.667 43 53 69h6l-35 -211h-790v4c24.667 20 40.334 42.5 47.001 67.5s10 67.5 10 127.5v346l-119 -37v31z" />
    <glyph glyph-name="lslash" unicode="&#x142;" horiz-adv-x="335" 
d="M-10 551l140.999 38.9971v629c0 62 -20.333 102.667 -61 122v5c23.333 2.66699 50.333 12.334 81 29.001s53.334 32.667 68.001 48h4l-2 -807l139 39v-28l-139 -41v-461c0 -27.333 3.5 -48.333 10.5 -63s19.167 -30 36.5 -46v-4h-186v4
c17.333 16.667 29.833 32.334 37.5 47.001s11.5 35.334 11.5 62.001v436l-141 -41v31z" />
    <glyph glyph-name="Nacute" unicode="&#x143;" horiz-adv-x="1161" 
d="M147 1147c0 54 -5.83301 94.167 -17.5 120.5s-31.5 50.833 -59.5 73.5v5h153l789 -1211l2 1012c0 44 -8.16699 81.5 -24.5 112.5s-44.5 58.167 -84.5 81.5v5h209v-5c-52 -35.333 -78 -100 -78 -194v-1135h-57l-809 1235v-1036c0 -44.667 8.16699 -82.5 24.5 -113.5
s44.5 -58.167 84.5 -81.5v-4h-209v4c51.333 35.333 77 100.333 77 195v936zM547 1423h-6l143 217l84 -65z" />
    <glyph glyph-name="nacute" unicode="&#x144;" horiz-adv-x="948" 
d="M70 829l-0.00292969 4.99707c22.667 2.66699 49.334 12.334 80.001 29.001s53.667 32.667 69 48h4v-112c51.333 27.333 110.333 52.833 177 76.5s127.334 35.5 182.001 35.5c84.667 0 148.5 -22.333 191.5 -67s64.5 -110.334 64.5 -197.001v-522
c0 -27.333 3.5 -48.333 10.5 -63s19.167 -30 36.5 -46v-4h-187v4c16.667 16 28.334 31.167 35.001 45.5s10 35.5 10 63.5v512c0 78 -19.5 134 -58.5 168s-97.833 51 -176.5 51c-88.667 0 -183.667 -26.667 -285 -80l-2 -651c0 -27.333 3.5 -48.333 10.5 -63
s19.167 -30 36.5 -46v-4h-186v4c17.333 16.667 29.833 32.334 37.5 47.001s11.5 35.334 11.5 62.001v582c0 60.667 -20.333 101.334 -61 122.001zM359.997 1061l144 217l84 -66l-221 -151h-7z" />
    <glyph glyph-name="uni0145" unicode="&#x145;" horiz-adv-x="1161" 
d="M147 1147c0 54 -5.83301 94.167 -17.5 120.5s-31.5 50.833 -59.5 73.5v5h153l789 -1211l2 1012c0 44 -8.16699 81.5 -24.5 112.5s-44.5 58.167 -84.5 81.5v5h209v-5c-52 -35.333 -78 -100 -78 -194v-1135h-57l-809 1235v-1036c0 -44.667 8.16699 -82.5 24.5 -113.5
s44.5 -58.167 84.5 -81.5v-4h-209v4c51.333 35.333 77 100.333 77 195v936zM573 -264c-21.333 0 -39.001 6.83301 -53.001 20.5s-20.667 32.167 -20 55.5c1.33301 18.667 9 34.834 23 48.501s30.667 20.5 50 20.5c22.667 0 41 -7.5 55 -22.5s21 -33.5 21 -55.5
c0 -19.333 -6.83301 -40.333 -20.5 -63s-26.167 -40 -37.5 -52s-26.666 -27.333 -45.999 -46l-4 12c32 37.333 52.333 66.666 61 87.999c-10 -4 -19.667 -6 -29 -6z" />
    <glyph glyph-name="uni0146" unicode="&#x146;" horiz-adv-x="948" 
d="M70 829l-0.00292969 4.99707c22.667 2.66699 49.334 12.334 80.001 29.001s53.667 32.667 69 48h4v-112c51.333 27.333 110.333 52.833 177 76.5s127.334 35.5 182.001 35.5c84.667 0 148.5 -22.333 191.5 -67s64.5 -110.334 64.5 -197.001v-522
c0 -27.333 3.5 -48.333 10.5 -63s19.167 -30 36.5 -46v-4h-187v4c16.667 16 28.334 31.167 35.001 45.5s10 35.5 10 63.5v512c0 78 -19.5 134 -58.5 168s-97.833 51 -176.5 51c-88.667 0 -183.667 -26.667 -285 -80l-2 -651c0 -27.333 3.5 -48.333 10.5 -63
s19.167 -30 36.5 -46v-4h-186v4c17.333 16.667 29.833 32.334 37.5 47.001s11.5 35.334 11.5 62.001v582c0 60.667 -20.333 101.334 -61 122.001zM478.997 -264.003c-21.333 0 -38.999 6.83301 -52.999 20.5s-20.667 32.167 -20 55.5
c1.33301 18.667 9.16602 34.834 23.499 48.501s31.5 20.5 51.5 20.5c22 0 40.167 -7.5 54.5 -22.5s21.5 -33.5 21.5 -55.5c0 -19.333 -6.83301 -40.333 -20.5 -63s-26.167 -40 -37.5 -52s-26.666 -27.333 -45.999 -46l-7 12c31.333 33.333 52.666 62.666 63.999 87.999
c-10 -4 -20.333 -6 -31 -6z" />
    <glyph glyph-name="Ncaron" unicode="&#x147;" horiz-adv-x="1161" 
d="M147 1147c0 54 -5.83301 94.167 -17.5 120.5s-31.5 50.833 -59.5 73.5v5h153l789 -1211l2 1012c0 44 -8.16699 81.5 -24.5 112.5s-44.5 58.167 -84.5 81.5v5h209v-5c-52 -35.333 -78 -100 -78 -194v-1135h-57l-809 1235v-1036c0 -44.667 8.16699 -82.5 24.5 -113.5
s44.5 -58.167 84.5 -81.5v-4h-209v4c51.333 35.333 77 100.333 77 195v936zM453 1642h12l160 -155l206 155h19l-176 -219l-117 17z" />
    <glyph glyph-name="ncaron" unicode="&#x148;" horiz-adv-x="948" 
d="M70 829l-0.00292969 4.99707c22.667 2.66699 49.334 12.334 80.001 29.001s53.667 32.667 69 48h4v-112c51.333 27.333 110.333 52.833 177 76.5s127.334 35.5 182.001 35.5c84.667 0 148.5 -22.333 191.5 -67s64.5 -110.334 64.5 -197.001v-522
c0 -27.333 3.5 -48.333 10.5 -63s19.167 -30 36.5 -46v-4h-187v4c16.667 16 28.334 31.167 35.001 45.5s10 35.5 10 63.5v512c0 78 -19.5 134 -58.5 168s-97.833 51 -176.5 51c-88.667 0 -183.667 -26.667 -285 -80l-2 -651c0 -27.333 3.5 -48.333 10.5 -63
s19.167 -30 36.5 -46v-4h-186v4c17.333 16.667 29.833 32.334 37.5 47.001s11.5 35.334 11.5 62.001v582c0 60.667 -20.333 101.334 -61 122.001zM275.997 1247h7l166 -155l221 155h4l-176 -219l-119 14z" />
    <glyph glyph-name="napostrophe" unicode="&#x149;" horiz-adv-x="1079" 
d="M350 911l3.99707 -0.00292969v-112c51.333 27.333 110.333 52.833 177 76.5s127.334 35.5 182.001 35.5c84.667 0 148.5 -22.333 191.5 -67s64.5 -110.334 64.5 -197.001v-522c0 -27.333 3.5 -48.333 10.5 -63s19.167 -30 36.5 -46v-4h-187v4
c16.667 16 28.334 31.167 35.001 45.5s10 35.5 10 63.5v512c0 78 -19.5 134 -58.5 168s-97.833 51 -176.5 51c-88.667 0 -183.667 -26.667 -285 -80l-2 -651c0 -27.333 3.5 -48.333 10.5 -63s19.167 -30 36.5 -46v-4h-186v4c17.333 16.667 29.833 32.334 37.5 47.001
s11.5 35.334 11.5 62.001v582c0 60.667 -20.333 101.334 -61 122.001v5c22.667 2.66699 49.334 12.334 80.001 29.001s53.667 32.667 69 48zM36.9971 1364c1.33301 18.667 8.99902 35 22.999 49s31 21 51 21c22.667 0 40.834 -7.5 54.501 -22.5s20.5 -33.5 20.5 -55.5
c0 -50 -30.667 -104 -92 -162l-18 12c30 32 51 61.333 63 88c-10 -4 -20 -6 -30 -6c-20.667 0 -38 6.83301 -52 20.5s-20.667 32.167 -20 55.5z" />
    <glyph glyph-name="Omacron" unicode="&#x14c;" horiz-adv-x="1368" 
d="M100 643c0 108 17.001 207.5 51.001 298.5s79.667 166.667 137 227s123.666 107.333 198.999 141s154.666 50.5 237.999 50.5c164.667 0 296.334 -55 395.001 -165s148 -267.333 148 -472c0 -106 -17.167 -204.667 -51.5 -296s-80.333 -167.833 -138 -229.5
s-124.5 -110 -200.5 -145s-155 -52.5 -237 -52.5c-162.667 0 -293.5 56.167 -392.5 168.5s-148.5 270.5 -148.5 474.5zM205.001 743c-0.666992 -54 1.49902 -106.33 6.49902 -156.997s13.667 -103.334 26 -158.001s30.333 -104.5 54 -149.5s52.334 -85.667 86.001 -122
s76.167 -64.666 127.5 -84.999s109 -30.5 173 -30.5c68.667 0 130.5 10.833 185.5 32.5s100.833 51 137.5 88s67.334 81 92.001 132s42.5 104.167 53.5 159.5s17.167 114 18.5 176c1.33301 65.333 -1.83398 128.333 -9.50098 189s-22.334 122.167 -44.001 184.5
s-50 116.166 -85 161.499s-81.667 82.5 -140 111.5s-125.166 43.5 -200.499 43.5c-68 0 -129.333 -10.5 -184 -31.5s-100 -49.333 -136 -85s-66 -78.334 -90 -128.001s-41.5 -101.834 -52.5 -156.501s-17.167 -113 -18.5 -175zM369 1454h630v-31h-630v31z" />
    </font>
</defs>
</svg>
